开启左侧

[剧情片] 日落大道 Sunset.Blvd.1950.1080p.BluRay.REMUX.AVC.DTS-HD.MA.TrueHD.2.0-FGT 27.23GB

蓝鸟 发表于 2022-6-2 21:16:56 | 显示全部楼层 |阅读模式

日落大道 Sunset.Blvd.1950.1080p.BluRay.REMUX.AVC.DTS-HD.MA.TrueHD.2.0-FGT 27.23GB

日落大道 Sunset.Blvd.1950.1080p.BluRay.REMUX.AVC.DTS-HD.MA.TrueHD.2.0-FGT 27.23GB


译  名 日落大道 / 红楼金粉(港) / Sunset Boulevard
片  名 Sunset Blvd.
年  代 1950
产  地 美国
类  别 剧情 / 黑色电影
语  言 英语
上映日期 1950-08-10(美国)
豆瓣评分 8.8/10 (52168人评价)
片  长 110分钟
导  演 比利·怀尔德 Billy Wilder
编  剧 查尔斯·布拉克特 Charles Brackett
       比利·怀尔德 Billy Wilder
       小D.M.马什曼 D.M. Marshman Jr.
演  员 威廉·霍尔登 William Holden
       葛洛丽亚·斯旺森 Gloria Swanson
       埃里克·冯·施特罗海姆 Erich von Stroheim
       南希·奥尔森 Nancy Olson
       弗雷德·克拉克 Fred Clark
       劳埃德·高夫 Lloyd Gough
       杰克·韦伯 Jack Webb
       富兰克林·法纳姆 Franklyn Farnum
       拉里·J·布莱克 Larry J. Blake
       塞西尔·B·戴米尔 Cecil B. DeMille
       赫达·霍珀 Hedda Hopper
       巴斯特·基顿 Buster Keaton
       安娜·Q·尼尔松 Anna Q. Nilsson
       H.B.沃纳 H.B. Warner
       雷·伊万斯 Ray Evans
       杰伊·利文斯顿 Jay Livingston
       Fred Aldrich Fred Aldrich
       格特鲁德·阿斯特 Gertrude Astor
       安妮·鲍切恩斯 Anne Bauchens
       Edward Biby Edward Biby
       丹尼·鲍沙其 Danny Borzage
       Ken Christy Ken Christy
       露丝·克利福德 Ruth Clifford
       John Cortay John Cortay
       Archie R. Dalzell Archie R. Dalzell
       艾迪·朱 Eddie Dew
       茱莉亚·法耶 Julia Faye
       Al Ferguson Al Ferguson
       Kenneth Gibson Kenneth Gibson
       Joe Gray Joe Gray
       克莱顿·黑尔 Creighton Hale
       E. Mason Hopper E. Mason Hopper
       Tiny Jones Tiny Jones
       霍华德·乔斯林 Howard Joslin
       Perc Launders Perc Launders
       Alan Marston Alan Marston
       Gertrude Messinger Gertrude Messinger
       哈罗德·米勒 Harold Miller
       李·米勒 Lee Miller
       拉尔夫·蒙哥马利 Ralph Montgomery
       伯特·穆尔豪斯 Bert Moorhouse
       Jay Morley Jay Morley
       霍华德·尼格利 Howard Negley
       奥托拉内史密斯 Ottola Nesmith
       伊娃·诺瓦克 Eva Novak
       弗兰克·奥康纳 Frank O''Connor
       罗伯特·埃米特·奥康纳 Robert Emmett O''Connor
       Jack Perrin Jack Perrin
       西德尼·斯科尔斯基 Sidney Skolsky
       Archie Twitchell Archie Twitchell
       伊薇特·维克斯 Yvette Vickers
       Edward Wahrman Edward Wahrman
       亨利·威尔克松 Henry Wilcoxon
       弗朗茨·沃克斯曼 Franz Waxman
       汉斯·德雷尔 Hans Dreier
       伊迪丝·海德 Edith Head
       高登·詹宁斯 Gordon Jennings

简  介

过气演员诺玛(葛洛丽亚·斯旺森 Gloria Swanson 饰)已经将近50岁,曾经的风华绝代正在她居住的荒废豪宅里慢慢凋谢,身边只有好友马克思(埃里克·施特罗海姆Erich von Stroheim)伺奉。她没放弃重燃光辉的梦想,《莎乐美》的剧本正待编写,而逃避债务逃至此地的没落编剧乔(威廉·霍尔登 William Holden饰),正是这项事业的最佳候选。诺玛收留他住下,给他提供舒适的环境写作,并慢慢的倾心于他。但是,乔并不能接受这个青春已逝的妇人。他拒绝了她,并转过身和另一个美丽的女子谋划新的剧本,他们相爱,打得火热。                                    
                                诺玛得知了乔的“背叛”,她卑微地哀求他,却动摇不了他渐行渐远的心,诺玛终于举起枪对准正要离开的乔。


获奖情况 (共18项)

第23届奥斯卡金像奖 (1951)
  最佳影片(提名)
  最佳导演(提名)
   └──比利·怀尔德
  最佳男主角(提名)
   └──威廉·霍尔登
  最佳女主角(提名)
   └──葛洛丽亚·斯旺森
  最佳男配角(提名)
   └──埃里克·冯·施特罗海姆
  最佳女配角(提名)
   └──南希·奥尔森
  最佳故事/编剧
  黑白片最佳摄影(提名)
   └──约翰·F·塞茨
  最佳剪辑(提名)
  黑白片最佳艺术指导和布景
  剧情/喜剧片最佳配乐
   └──弗朗茨·沃克斯曼
  第8届金球奖 (1951)
  电影类 最佳剧情片
  电影类 最佳导演
   └──比利·怀尔德
  电影类 剧情片最佳女主角
   └──葛洛丽亚·斯旺森
  电影类 最佳男配角(提名)
   └──埃里克·冯·施特罗海姆
  电影类 最佳编剧(提名)
   └──查尔斯·布拉克特
  电影类 最佳原创配乐
   └──弗朗茨·沃克斯曼
  电影类 黑白片最佳摄影(提名)


影片参数
  1. Video
  2. ID                                       : 1
  3. ID in the original source medium         : 4113 (0x1011)
  4. Format                                   : AVC
  5. Format/Info                              : Advanced Video Codec
  6. Format profile                           : [email protected]
  7. Format settings                          : CABAC / 4 Ref Frames
  8. Format settings, CABAC                   : Yes
  9. Format settings, Reference frames        : 4 frames
  10. Codec ID                                 : V_MPEG4/ISO/AVC
  11. Duration                                 : 1 h 50 min
  12. Bit rate mode                            : Variable
  13. Bit rate                                 : 30.9 Mb/s
  14. Maximum bit rate                         : 33.4 Mb/s
  15. Width                                    : 1 920 pixels
  16. Height                                   : 1 080 pixels
  17. Display aspect ratio                     : 16:9
  18. Frame rate mode                          : Constant
  19. Frame rate                               : 23.976 (24000/1001/189150) FPS
  20. Color space                              : YUV
  21. Chroma subsampling                       : 4:2:0
  22. Bit depth                                : 8 bits
  23. Scan type                                : Progressive
  24. Bits/(Pixel*Frame)                       : 0.622
  25. Stream size                              : 23.8 GiB (87%)
  26. Language                                 : English
  27. Default                                  : No
  28. Forced                                   : No
  29. Original source medium                   : Blu-ray
  30. Audio #1
  31. ID                                       : 2
  32. ID in the original source medium         : 4352 (0x1100)
  33. Format                                   : MLP FBA
  34. Format/Info                              : Meridian Lossless Packing FBA
  35. Commercial name                          : Dolby TrueHD
  36. Codec ID                                 : A_TRUEHD
  37. Duration                                 : 1 h 50 min
  38. Bit rate mode                            : Variable
  39. Bit rate                                 : 1 141 kb/s
  40. Maximum bit rate                         : 1 302 kb/s
  41. Channel(s)                               : 2 channels
  42. Channel layout                           : L R
  43. Sampling rate                            : 48.0 kHz
  44. Frame rate                               : 1 200.000 FPS (40 SPF)
  45. Bit depth                                : 24 bits
  46. Compression mode                         : Lossless
  47. Stream size                              : 900 MiB (3%)
  48. Title                                    : TrueHD 2.0
  49. Language                                 : English
  50. Default                                  : Yes
  51. Forced                                   : No
  52. Original source medium                   : Blu-ray
  53. Audio #2
  54. ID                                       : 3
  55. Format                                   : DTS XLL
  56. Format/Info                              : Digital Theater Systems
  57. Commercial name                          : DTS-HD Master Audio
  58. Codec ID                                 : A_DTS
  59. Duration                                 : 1 h 50 min
  60. Bit rate mode                            : Variable
  61. Bit rate                                 : 2 049 kb/s
  62. Channel(s)                               : 2 channels
  63. Channel layout                           : L R
  64. Sampling rate                            : 48.0 kHz
  65. Frame rate                               : 93.750 FPS (512 SPF)
  66. Bit depth                                : 24 bits
  67. Compression mode                         : Lossless
  68. Stream size                              : 1.58 GiB (6%)
  69. Title                                    : DTS-HD MA 2.0
  70. Language                                 : English
  71. Default                                  : No
  72. Forced                                   : No
  73. Audio #3
  74. ID                                       : 4
  75. ID in the original source medium         : 4352 (0x1100)
  76. Format                                   : AC-3
  77. Format/Info                              : Audio Coding 3
  78. Commercial name                          : Dolby Digital
  79. Codec ID                                 : A_AC3
  80. Duration                                 : 1 h 50 min
  81. Bit rate mode                            : Constant
  82. Bit rate                                 : 224 kb/s
  83. Channel(s)                               : 2 channels
  84. Channel layout                           : L R
  85. Sampling rate                            : 48.0 kHz
  86. Frame rate                               : 31.250 FPS (1536 SPF)
  87. Compression mode                         : Lossy
  88. Stream size                              : 177 MiB (1%)
  89. Title                                    : DD 2.0
  90. Language                                 : English
  91. Service kind                             : Complete Main
  92. Default                                  : No
  93. Forced                                   : No
  94. Original source medium                   : Blu-ray
  95. Audio #4
  96. ID                                       : 5
  97. ID in the original source medium         : 4353 (0x1101)
  98. Format                                   : AC-3
  99. Format/Info                              : Audio Coding 3
  100. Commercial name                          : Dolby Digital
  101. Codec ID                                 : A_AC3
  102. Duration                                 : 1 h 50 min
  103. Bit rate mode                            : Constant
  104. Bit rate                                 : 224 kb/s
  105. Channel(s)                               : 2 channels
  106. Channel layout                           : L R
  107. Sampling rate                            : 48.0 kHz
  108. Frame rate                               : 31.250 FPS (1536 SPF)
  109. Compression mode                         : Lossy
  110. Stream size                              : 177 MiB (1%)
  111. Title                                    : DD 2.0
  112. Language                                 : French
  113. Service kind                             : Complete Main
  114. Default                                  : No
  115. Forced                                   : No
  116. Original source medium                   : Blu-ray
  117. Audio #5
  118. ID                                       : 6
  119. ID in the original source medium         : 4354 (0x1102)
  120. Format                                   : AC-3
  121. Format/Info                              : Audio Coding 3
  122. Commercial name                          : Dolby Digital
  123. Codec ID                                 : A_AC3
  124. Duration                                 : 1 h 50 min
  125. Bit rate mode                            : Constant
  126. Bit rate                                 : 224 kb/s
  127. Channel(s)                               : 2 channels
  128. Channel layout                           : L R
  129. Sampling rate                            : 48.0 kHz
  130. Frame rate                               : 31.250 FPS (1536 SPF)
  131. Compression mode                         : Lossy
  132. Stream size                              : 177 MiB (1%)
  133. Title                                    : DD 2.0
  134. Language                                 : Spanish
  135. Service kind                             : Complete Main
  136. Default                                  : No
  137. Forced                                   : No
  138. Original source medium                   : Blu-ray
  139. Audio #6
  140. ID                                       : 7
  141. ID in the original source medium         : 4355 (0x1103)
  142. Format                                   : AC-3
  143. Format/Info                              : Audio Coding 3
  144. Commercial name                          : Dolby Digital
  145. Codec ID                                 : A_AC3
  146. Duration                                 : 1 h 50 min
  147. Bit rate mode                            : Constant
  148. Bit rate                                 : 224 kb/s
  149. Channel(s)                               : 2 channels
  150. Channel layout                           : L R
  151. Sampling rate                            : 48.0 kHz
  152. Frame rate                               : 31.250 FPS (1536 SPF)
  153. Compression mode                         : Lossy
  154. Stream size                              : 177 MiB (1%)
  155. Title                                    : DD 2.0
  156. Language                                 : Portuguese
  157. Service kind                             : Complete Main
  158. Default                                  : No
  159. Forced                                   : No
  160. Original source medium                   : Blu-ray
  161. Audio #7
  162. ID                                       : 8
  163. ID in the original source medium         : 4356 (0x1104)
  164. Format                                   : AC-3
  165. Format/Info                              : Audio Coding 3
  166. Commercial name                          : Dolby Digital
  167. Codec ID                                 : A_AC3
  168. Duration                                 : 1 h 50 min
  169. Bit rate mode                            : Constant
  170. Bit rate                                 : 224 kb/s
  171. Channel(s)                               : 2 channels
  172. Channel layout                           : L R
  173. Sampling rate                            : 48.0 kHz
  174. Frame rate                               : 31.250 FPS (1536 SPF)
  175. Compression mode                         : Lossy
  176. Stream size                              : 177 MiB (1%)
  177. Title                                    : DD 2.0
  178. Language                                 : English
  179. Service kind                             : Complete Main
  180. Default                                  : No
  181. Forced                                   : No
  182. Original source medium                   : Blu-ray
  183. Text #1
  184. ID                                       : 9
  185. Format                                   : UTF-8
  186. Codec ID                                 : S_TEXT/UTF8
  187. Codec ID/Info                            : UTF-8 Plain Text
  188. Duration                                 : 1 h 47 min
  189. Bit rate                                 : 79 b/s
  190. Count of elements                        : 1436
  191. Stream size                              : 63.1 KiB (0%)
  192. Language                                 : English
  193. Default                                  : Yes
  194. Forced                                   : No
  195. Text #2
  196. ID                                       : 10
  197. Format                                   : UTF-8
  198. Codec ID                                 : S_TEXT/UTF8
  199. Codec ID/Info                            : UTF-8 Plain Text
  200. Duration                                 : 1 h 48 min
  201. Bit rate                                 : 80 b/s
  202. Count of elements                        : 1466
  203. Stream size                              : 63.8 KiB (0%)
  204. Title                                    : SDH
  205. Language                                 : English
  206. Default                                  : No
  207. Forced                                   : No
  208. Text #3
  209. ID                                       : 11
  210. ID in the original source medium         : 4608 (0x1200)
  211. Format                                   : PGS
  212. Muxing mode                              : zlib
  213. Codec ID                                 : S_HDMV/PGS
  214. Codec ID/Info                            : Picture based subtitle format used on BDs/HD-DVDs
  215. Duration                                 : 1 h 47 min
  216. Bit rate                                 : 50.4 kb/s
  217. Count of elements                        : 2868
  218. Stream size                              : 38.9 MiB (0%)
  219. Language                                 : English
  220. Default                                  : No
  221. Forced                                   : No
  222. Original source medium                   : Blu-ray
  223. Text #4
  224. ID                                       : 12
  225. ID in the original source medium         : 4609 (0x1201)
  226. Format                                   : PGS
  227. Muxing mode                              : zlib
  228. Codec ID                                 : S_HDMV/PGS
  229. Codec ID/Info                            : Picture based subtitle format used on BDs/HD-DVDs
  230. Duration                                 : 1 h 48 min
  231. Bit rate                                 : 51.6 kb/s
  232. Count of elements                        : 2948
  233. Stream size                              : 39.9 MiB (0%)
  234. Language                                 : English
  235. Default                                  : No
  236. Forced                                   : No
  237. Original source medium                   : Blu-ray
  238. Text #5
  239. ID                                       : 13
  240. ID in the original source medium         : 4610 (0x1202)
  241. Format                                   : PGS
  242. Muxing mode                              : zlib
  243. Codec ID                                 : S_HDMV/PGS
  244. Codec ID/Info                            : Picture based subtitle format used on BDs/HD-DVDs
  245. Duration                                 : 1 h 49 min
  246. Bit rate                                 : 42.9 kb/s
  247. Count of elements                        : 2754
  248. Stream size                              : 33.7 MiB (0%)
  249. Language                                 : French
  250. Default                                  : No
  251. Forced                                   : No
  252. Original source medium                   : Blu-ray
  253. Text #6
  254. ID                                       : 14
  255. ID in the original source medium         : 4610 (0x1202)
  256. Format                                   : PGS
  257. Muxing mode                              : zlib
  258. Codec ID                                 : S_HDMV/PGS
  259. Codec ID/Info                            : Picture based subtitle format used on BDs/HD-DVDs
  260. Duration                                 : 1 h 49 min
  261. Bit rate                                 : 102 b/s
  262. Count of elements                        : 10
  263. Stream size                              : 82.3 KiB (0%)
  264. Language                                 : French
  265. Default                                  : No
  266. Forced                                   : No
  267. Original source medium                   : Blu-ray
  268. Text #7
  269. ID                                       : 15
  270. ID in the original source medium         : 4611 (0x1203)
  271. Format                                   : PGS
  272. Muxing mode                              : zlib
  273. Codec ID                                 : S_HDMV/PGS
  274. Codec ID/Info                            : Picture based subtitle format used on BDs/HD-DVDs
  275. Duration                                 : 1 h 49 min
  276. Bit rate                                 : 43.3 kb/s
  277. Count of elements                        : 2884
  278. Stream size                              : 34.0 MiB (0%)
  279. Language                                 : Spanish
  280. Default                                  : No
  281. Forced                                   : No
  282. Original source medium                   : Blu-ray
  283. Text #8
  284. ID                                       : 16
  285. ID in the original source medium         : 4611 (0x1203)
  286. Format                                   : PGS
  287. Muxing mode                              : zlib
  288. Codec ID                                 : S_HDMV/PGS
  289. Codec ID/Info                            : Picture based subtitle format used on BDs/HD-DVDs
  290. Duration                                 : 29 min 34 s
  291. Bit rate                                 : 315 b/s
  292. Count of elements                        : 8
  293. Stream size                              : 68.4 KiB (0%)
  294. Language                                 : Spanish
  295. Default                                  : No
  296. Forced                                   : No
  297. Original source medium                   : Blu-ray
  298. Text #9
  299. ID                                       : 17
  300. ID in the original source medium         : 4612 (0x1204)
  301. Format                                   : PGS
  302. Muxing mode                              : zlib
  303. Codec ID                                 : S_HDMV/PGS
  304. Codec ID/Info                            : Picture based subtitle format used on BDs/HD-DVDs
  305. Duration                                 : 1 h 49 min
  306. Bit rate                                 : 49.2 kb/s
  307. Count of elements                        : 2880
  308. Stream size                              : 38.6 MiB (0%)
  309. Language                                 : Portuguese
  310. Default                                  : No
  311. Forced                                   : No
  312. Original source medium                   : Blu-ray
  313. Text #10
  314. ID                                       : 18
  315. ID in the original source medium         : 4612 (0x1204)
  316. Format                                   : PGS
  317. Muxing mode                              : zlib
  318. Codec ID                                 : S_HDMV/PGS
  319. Codec ID/Info                            : Picture based subtitle format used on BDs/HD-DVDs
  320. Duration                                 : 1 s 398 ms
  321. Bit rate                                 : 17.2 kb/s
  322. Count of elements                        : 2
  323. Stream size                              : 2.94 KiB (0%)
  324. Language                                 : Portuguese
  325. Default                                  : No
  326. Forced                                   : No
  327. Original source medium                   : Blu-ray
  328. Menu
  329. 00:00:00.000                             : en:Chapter 01
  330. 00:02:45.206                             : en:Chapter 02
  331. 00:10:20.620                             : en:Chapter 03
  332. 00:13:29.016                             : en:Chapter 04
  333. 00:17:47.775                             : en:Chapter 05
  334. 00:24:02.399                             : en:Chapter 06
  335. 00:29:17.088                             : en:Chapter 07
  336. 00:33:10.989                             : en:Chapter 08
  337. 00:37:43.761                             : en:Chapter 09
  338. 00:41:14.054                             : en:Chapter 10
  339. 00:56:09.783                             : en:Chapter 11
  340. 01:01:09.916                             : en:Chapter 12
  341. 01:04:01.504                             : en:Chapter 13
  342. 01:07:28.669                             : en:Chapter 14
  343. 01:15:53.799                             : en:Chapter 15
  344. 01:21:17.330                             : en:Chapter 16
  345. 01:30:01.145                             : en:Chapter 17
  346. 01:38:38.203                             : en:Chapter 18
  347. 01:43:26.867                             : en:Chapter 19
复制代码



4K321提示您 点击下方附件即可下载

日落大道 Sunset.Blvd.1950.1080p.BluRay.REMUX.AVC.DTS-HD.MA.TrueHD.2.0-FGT 27.23GB

Sunset.Blvd.1950.1080p.BluRay.REMUX.AVC.DTS-HD.MA.TrueHD.2.0-FGT.torrent ( 34.7 KB )

回复

使用道具 举报

全部回复0 显示全部楼层

声明:您在社区发表的所有信息仅代表用户个人观点,与本网站立场无关,希望各位烧友理性发言,不发表违法国家法律禁止的话题。

您需要登录后才可以回帖 登录 | 立即注册

本版积分规则

联系客服 关注微信 下载APP 返回顶部 返回列表