开启左侧

[剧情片] 老板是空气 Bartleby.1970.1080p.BluRay.REMUX.AVC.LPCM.1.0-FGT 20.57GB

蓝鸟 发表于 2022-6-2 21:14:34 | 显示全部楼层 |阅读模式

老板是空气 Bartleby.1970.1080p.BluRay.REMUX.AVC.LPCM.1.0-FGT 20.57GB

老板是空气 Bartleby.1970.1080p.BluRay.REMUX.AVC.LPCM.1.0-FGT 20.57GB


译  名 老板是空气
片  名 Bartleby
年  代 1970
产  地 英国
类  别 剧情
语  言 英语
上映日期 1972-02-06
片  长 USA: 78 分钟
编  剧 赫尔曼·梅尔维尔 Herman Melville
演  员 保罗·斯科菲尔德 Paul Scofield
       约翰·麦克埃尼 John McEnery
       雷蒙德·梅森 Raymond Mason
       科林·杰翁斯 Colin Jeavons
       Neville Barber Neville Barber
       Robin Askwith Robin Askwith
       多利·沃特斯 Thorley Walters
       Roger Webb Roger Webb
       Ian Wilson Ian Wilson


影片参数
  1. Video
  2. ID                                       : 1
  3. ID in the original source medium         : 4113 (0x1011)
  4. Format                                   : AVC
  5. Format/Info                              : Advanced Video Codec
  6. Format profile                           : [email protected]
  7. Format settings                          : CABAC / 3 Ref Frames
  8. Format settings, CABAC                   : Yes
  9. Format settings, Reference frames        : 3 frames
  10. Codec ID                                 : V_MPEG4/ISO/AVC
  11. Duration                                 : 1 h 18 min
  12. Bit rate mode                            : Variable
  13. Bit rate                                 : 36.4 Mb/s
  14. Maximum bit rate                         : 38.0 Mb/s
  15. Width                                    : 1 920 pixels
  16. Height                                   : 1 080 pixels
  17. Display aspect ratio                     : 16:9
  18. Frame rate mode                          : Constant
  19. Frame rate                               : 23.976 (24000/1001/189150) FPS
  20. Color space                              : YUV
  21. Chroma subsampling                       : 4:2:0
  22. Bit depth                                : 8 bits
  23. Scan type                                : Progressive
  24. Bits/(Pixel*Frame)                       : 0.731
  25. Stream size                              : 19.9 GiB (97%)
  26. Language                                 : English
  27. Default                                  : No
  28. Forced                                   : No
  29. Color range                              : Limited
  30. Color primaries                          : BT.709
  31. Transfer characteristics                 : BT.709
  32. Matrix coefficients                      : BT.709
  33. Original source medium                   : Blu-ray
  34. Audio
  35. ID                                       : 2
  36. ID in the original source medium         : 4352 (0x1100)
  37. Format                                   : PCM
  38. Format settings                          : Little / Signed
  39. Codec ID                                 : A_PCM/INT/LIT
  40. Duration                                 : 1 h 18 min
  41. Bit rate mode                            : Constant
  42. Bit rate                                 : 1 152 kb/s
  43. Channel(s)                               : 1 channel
  44. Sampling rate                            : 48.0 kHz
  45. Frame rate                               : 30.000 FPS (1600 SPF)
  46. Bit depth                                : 24 bits
  47. Stream size                              : 646 MiB (3%)
  48. Title                                    : LPCM 1.0
  49. Language                                 : English
  50. Default                                  : Yes
  51. Forced                                   : No
  52. Original source medium                   : Blu-ray
  53. Text #1
  54. ID                                       : 3
  55. Format                                   : UTF-8
  56. Codec ID                                 : S_TEXT/UTF8
  57. Codec ID/Info                            : UTF-8 Plain Text
  58. Duration                                 : 1 h 15 min
  59. Bit rate                                 : 29 b/s
  60. Count of elements                        : 545
  61. Stream size                              : 16.4 KiB (0%)
  62. Language                                 : English
  63. Default                                  : Yes
  64. Forced                                   : No
  65. Text #2
  66. ID                                       : 4
  67. Format                                   : UTF-8
  68. Codec ID                                 : S_TEXT/UTF8
  69. Codec ID/Info                            : UTF-8 Plain Text
  70. Duration                                 : 1 h 17 min
  71. Bit rate                                 : 31 b/s
  72. Count of elements                        : 619
  73. Stream size                              : 17.7 KiB (0%)
  74. Title                                    : SDH
  75. Language                                 : English
  76. Default                                  : No
  77. Forced                                   : No
  78. Text #3
  79. ID                                       : 5
  80. ID in the original source medium         : 4608 (0x1200)
  81. Format                                   : PGS
  82. Muxing mode                              : zlib
  83. Codec ID                                 : S_HDMV/PGS
  84. Codec ID/Info                            : Picture based subtitle format used on BDs/HD-DVDs
  85. Duration                                 : 1 h 17 min
  86. Bit rate                                 : 21.1 kb/s
  87. Count of elements                        : 1248
  88. Stream size                              : 11.8 MiB (0%)
  89. Language                                 : English
  90. Default                                  : No
  91. Forced                                   : No
  92. Original source medium                   : Blu-ray
  93. Menu
  94. 00:00:00.000                             : en:Chapter 00
  95. 00:00:11.302                             : en:Chapter 01
  96. 00:07:37.123                             : en:Chapter 02
  97. 00:14:55.060                             : en:Chapter 03
  98. 00:23:50.470                             : en:Chapter 04
  99. 00:31:20.128                             : en:Chapter 05
  100. 00:37:53.521                             : en:Chapter 06
  101. 00:48:03.755                             : en:Chapter 07
  102. 00:55:11.599                             : en:Chapter 08
  103. 01:01:22.303                             : en:Chapter 09
  104. 01:09:12.398                             : en:Chapter 10
复制代码



4K321提示您 点击下方附件即可下载

老板是空气 Bartleby.1970.1080p.BluRay.REMUX.AVC.LPCM.1.0-FGT 20.57GB

Bartleby.1970.1080p.BluRay.REMUX.AVC.LPCM.1.0-FGT.torrent ( 26.34 KB )

回复

使用道具 举报

全部回复0 显示全部楼层

声明:您在社区发表的所有信息仅代表用户个人观点,与本网站立场无关,希望各位烧友理性发言,不发表违法国家法律禁止的话题。

您需要登录后才可以回帖 登录 | 立即注册

本版积分规则

联系客服 关注微信 下载APP 返回顶部 返回列表