开启左侧

[喜剧片] 万世魔星 Monty.Pythons.Life.of.Brian.1979.1080p.BluRay.REMUX.AVC.DTS-HD.MA.TrueHD.5.1-FGT 27.27GB

蓝鸟 发表于 2022-6-2 21:11:59 | 显示全部楼层 |阅读模式

万世魔星 Monty.Pythons.Life.of.Brian.1979.1080p.BluRay.REMUX.AVC.DTS-HD.MA.TrueHD.5.1-FGT 27.27GB ...

万世魔星 Monty.Pythons.Life.of.Brian.1979.1080p.BluRay.REMUX.AVC.DTS-HD.MA.TrueHD.5.1-FGT 27.27GB ...


译  名 万世魔星 / 布莱恩的一生 / Monty Python''s Life of Brian
片  名 Life of Brian
年  代 1979
产  地 英国
类  别 喜剧
语  言 英语 / 拉丁语
上映日期 1979-11-08(英国)
豆瓣评分 8.0/10 (10032人评价)
片  长 94分钟
导  演 特瑞·琼斯 Terry Jones
编  剧 格雷厄姆·查普曼 Graham Chapman
       约翰·克里斯 John Cleese
       特瑞·吉列姆 Terry Gilliam
       艾瑞克·爱都 Eric Idle
       特瑞·琼斯 Terry Jones
       迈克尔·帕林 Michael Palin
演  员 格雷厄姆·查普曼 Graham Chapman
       约翰·克里斯 John Cleese
       特瑞·吉列姆 Terry Gilliam
       艾瑞克·爱都 Eric Idle
       特瑞·琼斯 Terry Jones
       迈克尔·帕林 Michael Palin
       特伦斯·贝勒 Terence Bayler
       卡萝尔·克力夫兰 Carol Cleveland
       肯尼斯·考利 Kenneth Colley
       尼尔·尹艾斯 Neil Innes
       查尔斯·麦肯恩 Charles McKeown
       John Young John Young
       Gwen Taylor Gwen Taylor
       克里斯·朗厄姆 Chris Langham
       斯派克·米利甘 Spike Milligan
       乔治·哈里逊 George Harrison
       查尔斯·诺德 Charles Knode
       罗杰·克里斯蒂安 Roger Christian
       特瑞·吉列姆 Terry Gilliam
       Hazel Pethig Hazel Pethig
       查尔斯·诺德 Charles Knode
       Elaine Carew Elaine Carew
       玛吉·韦斯顿 Maggie Weston
       肯特·休斯顿 Kent Houston

简  介

本片是英国著名的喜剧团体Monty Python的成员特里琼斯 (Terry Jones)导演的一部荒诞不经的调侃宗教的电影,故事的发生地在巴勒斯坦,讲述了一个普通的男人被世人误认为是弥赛亚(犹太人企盼的复国救主),由此引发了许多啼笑皆非的故事,一如Monty Python所有的电影那般,特里琼斯在这部电影中也使用了大量荒诞无厘头的笑料,电影以圣经为原型,由头至尾都充斥着颠覆,嘲讽的意味,对于虔诚的宗教人士来说,这部电影确实是场巨大的灾难。


影片参数
  1. Video
  2. ID                                       : 1
  3. ID in the original source medium         : 4113 (0x1011)
  4. Format                                   : AVC
  5. Format/Info                              : Advanced Video Codec
  6. Format profile                           : [email protected]
  7. Format settings                          : CABAC / 2 Ref Frames
  8. Format settings, CABAC                   : Yes
  9. Format settings, Reference frames        : 2 frames
  10. Format settings, GOP                     : M=1, N=10
  11. Codec ID                                 : V_MPEG4/ISO/AVC
  12. Duration                                 : 1 h 33 min
  13. Bit rate mode                            : Variable
  14. Bit rate                                 : 28.0 Mb/s
  15. Width                                    : 1 920 pixels
  16. Height                                   : 1 080 pixels
  17. Display aspect ratio                     : 16:9
  18. Frame rate mode                          : Constant
  19. Frame rate                               : 23.976 (24000/1001/189150) FPS
  20. Color space                              : YUV
  21. Chroma subsampling                       : 4:2:0
  22. Bit depth                                : 8 bits
  23. Scan type                                : Progressive
  24. Bits/(Pixel*Frame)                       : 0.562
  25. Stream size                              : 18.3 GiB (67%)
  26. Language                                 : English
  27. Default                                  : No
  28. Forced                                   : No
  29. Original source medium                   : Blu-ray
  30. Audio #1
  31. ID                                       : 2
  32. ID in the original source medium         : 4353 (0x1101)
  33. Format                                   : MLP FBA
  34. Format/Info                              : Meridian Lossless Packing FBA
  35. Commercial name                          : Dolby TrueHD
  36. Codec ID                                 : A_TRUEHD
  37. Duration                                 : 1 h 33 min
  38. Bit rate mode                            : Variable
  39. Bit rate                                 : 2 045 kb/s
  40. Maximum bit rate                         : 3 366 kb/s
  41. Channel(s)                               : 6 channels
  42. Channel layout                           : L R C LFE Ls Rs
  43. Sampling rate                            : 48.0 kHz
  44. Frame rate                               : 1 200.000 FPS (40 SPF)
  45. Bit depth                                : 24 bits
  46. Compression mode                         : Lossless
  47. Stream size                              : 1.34 GiB (5%)
  48. Title                                    : TrueHD 5.1
  49. Language                                 : English
  50. Default                                  : Yes
  51. Forced                                   : No
  52. Original source medium                   : Blu-ray
  53. Audio #2
  54. ID                                       : 3
  55. Format                                   : DTS XLL
  56. Format/Info                              : Digital Theater Systems
  57. Commercial name                          : DTS-HD Master Audio
  58. Codec ID                                 : A_DTS
  59. Duration                                 : 1 h 33 min
  60. Bit rate mode                            : Variable
  61. Bit rate                                 : 2 685 kb/s
  62. Channel(s)                               : 6 channels
  63. Channel layout                           : C L R Ls Rs LFE
  64. Sampling rate                            : 48.0 kHz
  65. Frame rate                               : 93.750 FPS (512 SPF)
  66. Bit depth                                : 24 bits
  67. Compression mode                         : Lossless
  68. Stream size                              : 1.76 GiB (6%)
  69. Title                                    : DTS-HD MA 5.1
  70. Language                                 : English
  71. Default                                  : No
  72. Forced                                   : No
  73. Audio #3
  74. ID                                       : 4
  75. ID in the original source medium         : 4353 (0x1101)
  76. Format                                   : AC-3
  77. Format/Info                              : Audio Coding 3
  78. Commercial name                          : Dolby Digital
  79. Codec ID                                 : A_AC3
  80. Duration                                 : 1 h 33 min
  81. Bit rate mode                            : Constant
  82. Bit rate                                 : 640 kb/s
  83. Channel(s)                               : 6 channels
  84. Channel layout                           : L R C LFE Ls Rs
  85. Sampling rate                            : 48.0 kHz
  86. Frame rate                               : 31.250 FPS (1536 SPF)
  87. Compression mode                         : Lossy
  88. Stream size                              : 429 MiB (2%)
  89. Title                                    : DD 5.1
  90. Language                                 : English
  91. Service kind                             : Complete Main
  92. Default                                  : No
  93. Forced                                   : No
  94. Original source medium                   : Blu-ray
  95. Audio #4
  96. ID                                       : 5
  97. ID in the original source medium         : 4354 (0x1102)
  98. Format                                   : MLP FBA
  99. Format/Info                              : Meridian Lossless Packing FBA
  100. Commercial name                          : Dolby TrueHD
  101. Codec ID                                 : A_TRUEHD
  102. Duration                                 : 1 h 33 min
  103. Bit rate mode                            : Variable
  104. Bit rate                                 : 1 356 kb/s
  105. Maximum bit rate                         : 2 475 kb/s
  106. Channel(s)                               : 6 channels
  107. Channel layout                           : L R C LFE Ls Rs
  108. Sampling rate                            : 48.0 kHz
  109. Frame rate                               : 1 200.000 FPS (40 SPF)
  110. Bit depth                                : 24 bits
  111. Compression mode                         : Lossless
  112. Stream size                              : 909 MiB (3%)
  113. Title                                    : TrueHD 5.1
  114. Language                                 : French
  115. Default                                  : No
  116. Forced                                   : No
  117. Original source medium                   : Blu-ray
  118. Audio #5
  119. ID                                       : 6
  120. ID in the original source medium         : 4354 (0x1102)
  121. Format                                   : AC-3
  122. Format/Info                              : Audio Coding 3
  123. Commercial name                          : Dolby Digital
  124. Codec ID                                 : A_AC3
  125. Duration                                 : 1 h 33 min
  126. Bit rate mode                            : Constant
  127. Bit rate                                 : 640 kb/s
  128. Channel(s)                               : 6 channels
  129. Channel layout                           : L R C LFE Ls Rs
  130. Sampling rate                            : 48.0 kHz
  131. Frame rate                               : 31.250 FPS (1536 SPF)
  132. Compression mode                         : Lossy
  133. Stream size                              : 429 MiB (2%)
  134. Title                                    : DD 5.1
  135. Language                                 : French
  136. Service kind                             : Complete Main
  137. Default                                  : No
  138. Forced                                   : No
  139. Original source medium                   : Blu-ray
  140. Audio #6
  141. ID                                       : 7
  142. ID in the original source medium         : 4352 (0x1100)
  143. Format                                   : PCM
  144. Format settings                          : Little / Signed
  145. Codec ID                                 : A_MS/ACM / 00000001-0000-0010-8000-00AA00389B71
  146. Duration                                 : 1 h 33 min
  147. Bit rate mode                            : Constant
  148. Bit rate                                 : 4 608 kb/s / 4 608 kb/s
  149. Channel(s)                               : 6 channels
  150. Channel layout                           : L R C LFE Ls Rs
  151. Sampling rate                            : 48.0 kHz
  152. Frame rate                               : 30.000 FPS (1600 SPF)
  153. Bit depth                                : 16 bits
  154. Stream size                              : 3.02 GiB (11%)
  155. Title                                    : LPCM 5.1
  156. Language                                 : English
  157. Default                                  : No
  158. Forced                                   : No
  159. Original source medium                   : Blu-ray
  160. Audio #7
  161. ID                                       : 8
  162. ID in the original source medium         : 4355 (0x1103)
  163. Format                                   : AC-3
  164. Format/Info                              : Audio Coding 3
  165. Commercial name                          : Dolby Digital
  166. Codec ID                                 : A_AC3
  167. Duration                                 : 1 h 33 min
  168. Bit rate mode                            : Constant
  169. Bit rate                                 : 640 kb/s
  170. Channel(s)                               : 5 channels
  171. Channel layout                           : L R C Ls Rs
  172. Sampling rate                            : 48.0 kHz
  173. Frame rate                               : 31.250 FPS (1536 SPF)
  174. Compression mode                         : Lossy
  175. Stream size                              : 429 MiB (2%)
  176. Title                                    : DD 5.0
  177. Language                                 : Hungarian
  178. Service kind                             : Complete Main
  179. Default                                  : No
  180. Forced                                   : No
  181. Original source medium                   : Blu-ray
  182. Audio #8
  183. ID                                       : 9
  184. ID in the original source medium         : 4356 (0x1104)
  185. Format                                   : AC-3
  186. Format/Info                              : Audio Coding 3
  187. Commercial name                          : Dolby Digital
  188. Codec ID                                 : A_AC3
  189. Duration                                 : 1 h 33 min
  190. Bit rate mode                            : Constant
  191. Bit rate                                 : 192 kb/s
  192. Channel(s)                               : 2 channels
  193. Channel layout                           : L R
  194. Sampling rate                            : 48.0 kHz
  195. Frame rate                               : 31.250 FPS (1536 SPF)
  196. Compression mode                         : Lossy
  197. Stream size                              : 129 MiB (0%)
  198. Title                                    : DD 2.0
  199. Language                                 : English
  200. Service kind                             : Complete Main
  201. Default                                  : No
  202. Forced                                   : No
  203. Original source medium                   : Blu-ray
  204. Audio #9
  205. ID                                       : 10
  206. ID in the original source medium         : 4357 (0x1105)
  207. Format                                   : AC-3
  208. Format/Info                              : Audio Coding 3
  209. Commercial name                          : Dolby Digital
  210. Codec ID                                 : A_AC3
  211. Duration                                 : 1 h 33 min
  212. Bit rate mode                            : Constant
  213. Bit rate                                 : 192 kb/s
  214. Channel(s)                               : 2 channels
  215. Channel layout                           : L R
  216. Sampling rate                            : 48.0 kHz
  217. Frame rate                               : 31.250 FPS (1536 SPF)
  218. Compression mode                         : Lossy
  219. Stream size                              : 129 MiB (0%)
  220. Title                                    : DD 2.0
  221. Language                                 : English
  222. Service kind                             : Complete Main
  223. Default                                  : No
  224. Forced                                   : No
  225. Original source medium                   : Blu-ray
  226. Text #1
  227. ID                                       : 11
  228. Format                                   : UTF-8
  229. Codec ID                                 : S_TEXT/UTF8
  230. Codec ID/Info                            : UTF-8 Plain Text
  231. Duration                                 : 1 h 31 min
  232. Bit rate                                 : 76 b/s
  233. Count of elements                        : 1349
  234. Stream size                              : 50.9 KiB (0%)
  235. Language                                 : English
  236. Default                                  : Yes
  237. Forced                                   : No
  238. Text #2
  239. ID                                       : 12
  240. ID in the original source medium         : 4608 (0x1200)
  241. Format                                   : PGS
  242. Muxing mode                              : zlib
  243. Codec ID                                 : S_HDMV/PGS
  244. Codec ID/Info                            : Picture based subtitle format used on BDs/HD-DVDs
  245. Duration                                 : 1 h 31 min
  246. Bit rate                                 : 43.7 kb/s
  247. Count of elements                        : 2734
  248. Stream size                              : 28.5 MiB (0%)
  249. Language                                 : English
  250. Default                                  : No
  251. Forced                                   : No
  252. Original source medium                   : Blu-ray
  253. Text #3
  254. ID                                       : 13
  255. ID in the original source medium         : 4609 (0x1201)
  256. Format                                   : PGS
  257. Muxing mode                              : zlib
  258. Codec ID                                 : S_HDMV/PGS
  259. Codec ID/Info                            : Picture based subtitle format used on BDs/HD-DVDs
  260. Duration                                 : 1 h 31 min
  261. Bit rate                                 : 43.7 kb/s
  262. Count of elements                        : 2734
  263. Stream size                              : 28.5 MiB (0%)
  264. Language                                 : English
  265. Default                                  : No
  266. Forced                                   : No
  267. Original source medium                   : Blu-ray
  268. Text #4
  269. ID                                       : 14
  270. ID in the original source medium         : 4610 (0x1202)
  271. Format                                   : PGS
  272. Muxing mode                              : zlib
  273. Codec ID                                 : S_HDMV/PGS
  274. Codec ID/Info                            : Picture based subtitle format used on BDs/HD-DVDs
  275. Duration                                 : 1 h 32 min
  276. Bit rate                                 : 32.4 kb/s
  277. Count of elements                        : 2998
  278. Stream size                              : 21.5 MiB (0%)
  279. Language                                 : English
  280. Default                                  : No
  281. Forced                                   : No
  282. Original source medium                   : Blu-ray
  283. Text #5
  284. ID                                       : 15
  285. ID in the original source medium         : 4611 (0x1203)
  286. Format                                   : PGS
  287. Muxing mode                              : zlib
  288. Codec ID                                 : S_HDMV/PGS
  289. Codec ID/Info                            : Picture based subtitle format used on BDs/HD-DVDs
  290. Duration                                 : 1 h 32 min
  291. Bit rate                                 : 32.4 kb/s
  292. Count of elements                        : 3004
  293. Stream size                              : 21.5 MiB (0%)
  294. Language                                 : English
  295. Default                                  : No
  296. Forced                                   : No
  297. Original source medium                   : Blu-ray
  298. Text #6
  299. ID                                       : 16
  300. ID in the original source medium         : 4612 (0x1204)
  301. Format                                   : PGS
  302. Muxing mode                              : zlib
  303. Codec ID                                 : S_HDMV/PGS
  304. Codec ID/Info                            : Picture based subtitle format used on BDs/HD-DVDs
  305. Duration                                 : 1 h 31 min
  306. Bit rate                                 : 37.3 kb/s
  307. Count of elements                        : 2624
  308. Stream size                              : 24.5 MiB (0%)
  309. Language                                 : French
  310. Default                                  : No
  311. Forced                                   : No
  312. Original source medium                   : Blu-ray
  313. Text #7
  314. ID                                       : 17
  315. ID in the original source medium         : 4612 (0x1204)
  316. Format                                   : PGS
  317. Muxing mode                              : zlib
  318. Codec ID                                 : S_HDMV/PGS
  319. Codec ID/Info                            : Picture based subtitle format used on BDs/HD-DVDs
  320. Duration                                 : 11 min 30 s
  321. Bit rate                                 : 887 b/s
  322. Count of elements                        : 10
  323. Stream size                              : 74.8 KiB (0%)
  324. Language                                 : French
  325. Default                                  : No
  326. Forced                                   : No
  327. Original source medium                   : Blu-ray
  328. Text #8
  329. ID                                       : 18
  330. ID in the original source medium         : 4613 (0x1205)
  331. Format                                   : PGS
  332. Muxing mode                              : zlib
  333. Codec ID                                 : S_HDMV/PGS
  334. Codec ID/Info                            : Picture based subtitle format used on BDs/HD-DVDs
  335. Duration                                 : 1 h 31 min
  336. Bit rate                                 : 34.2 kb/s
  337. Count of elements                        : 2662
  338. Stream size                              : 22.5 MiB (0%)
  339. Language                                 : Spanish
  340. Default                                  : No
  341. Forced                                   : No
  342. Original source medium                   : Blu-ray
  343. Text #9
  344. ID                                       : 19
  345. ID in the original source medium         : 4614 (0x1206)
  346. Format                                   : PGS
  347. Muxing mode                              : zlib
  348. Codec ID                                 : S_HDMV/PGS
  349. Codec ID/Info                            : Picture based subtitle format used on BDs/HD-DVDs
  350. Duration                                 : 1 h 31 min
  351. Bit rate                                 : 21.3 kb/s
  352. Count of elements                        : 2652
  353. Stream size                              : 14.0 MiB (0%)
  354. Language                                 : Arabic
  355. Default                                  : No
  356. Forced                                   : No
  357. Original source medium                   : Blu-ray
  358. Text #10
  359. ID                                       : 20
  360. ID in the original source medium         : 4615 (0x1207)
  361. Format                                   : PGS
  362. Muxing mode                              : zlib
  363. Codec ID                                 : S_HDMV/PGS
  364. Codec ID/Info                            : Picture based subtitle format used on BDs/HD-DVDs
  365. Duration                                 : 1 h 31 min
  366. Bit rate                                 : 40.6 kb/s
  367. Count of elements                        : 2666
  368. Stream size                              : 26.7 MiB (0%)
  369. Language                                 : Bulgarian
  370. Default                                  : No
  371. Forced                                   : No
  372. Original source medium                   : Blu-ray
  373. Text #11
  374. ID                                       : 21
  375. ID in the original source medium         : 4616 (0x1208)
  376. Format                                   : PGS
  377. Muxing mode                              : zlib
  378. Codec ID                                 : S_HDMV/PGS
  379. Codec ID/Info                            : Picture based subtitle format used on BDs/HD-DVDs
  380. Duration                                 : 1 h 31 min
  381. Bit rate                                 : 40.8 kb/s
  382. Count of elements                        : 2516
  383. Stream size                              : 26.8 MiB (0%)
  384. Language                                 : Chinese
  385. Default                                  : No
  386. Forced                                   : No
  387. Original source medium                   : Blu-ray
  388. Text #12
  389. ID                                       : 22
  390. ID in the original source medium         : 4617 (0x1209)
  391. Format                                   : PGS
  392. Muxing mode                              : zlib
  393. Codec ID                                 : S_HDMV/PGS
  394. Codec ID/Info                            : Picture based subtitle format used on BDs/HD-DVDs
  395. Duration                                 : 1 h 31 min
  396. Bit rate                                 : 33.2 kb/s
  397. Count of elements                        : 2644
  398. Stream size                              : 21.8 MiB (0%)
  399. Language                                 : Croatian
  400. Default                                  : No
  401. Forced                                   : No
  402. Original source medium                   : Blu-ray
  403. Text #13
  404. ID                                       : 23
  405. ID in the original source medium         : 4618 (0x120A)
  406. Format                                   : PGS
  407. Muxing mode                              : zlib
  408. Codec ID                                 : S_HDMV/PGS
  409. Codec ID/Info                            : Picture based subtitle format used on BDs/HD-DVDs
  410. Duration                                 : 1 h 31 min
  411. Bit rate                                 : 36.8 kb/s
  412. Count of elements                        : 2646
  413. Stream size                              : 24.2 MiB (0%)
  414. Language                                 : Czech
  415. Default                                  : No
  416. Forced                                   : No
  417. Original source medium                   : Blu-ray
  418. Text #14
  419. ID                                       : 24
  420. ID in the original source medium         : 4619 (0x120B)
  421. Format                                   : PGS
  422. Muxing mode                              : zlib
  423. Codec ID                                 : S_HDMV/PGS
  424. Codec ID/Info                            : Picture based subtitle format used on BDs/HD-DVDs
  425. Duration                                 : 1 h 31 min
  426. Bit rate                                 : 33.4 kb/s
  427. Count of elements                        : 1864
  428. Stream size                              : 22.0 MiB (0%)
  429. Language                                 : Danish
  430. Default                                  : No
  431. Forced                                   : No
  432. Original source medium                   : Blu-ray
  433. Text #15
  434. ID                                       : 25
  435. ID in the original source medium         : 4620 (0x120C)
  436. Format                                   : PGS
  437. Muxing mode                              : zlib
  438. Codec ID                                 : S_HDMV/PGS
  439. Codec ID/Info                            : Picture based subtitle format used on BDs/HD-DVDs
  440. Duration                                 : 1 h 32 min
  441. Bit rate                                 : 33.9 kb/s
  442. Count of elements                        : 1855
  443. Stream size                              : 22.3 MiB (0%)
  444. Language                                 : Dutch
  445. Default                                  : No
  446. Forced                                   : No
  447. Original source medium                   : Blu-ray
  448. Text #16
  449. ID                                       : 26
  450. ID in the original source medium         : 4621 (0x120D)
  451. Format                                   : PGS
  452. Muxing mode                              : zlib
  453. Codec ID                                 : S_HDMV/PGS
  454. Codec ID/Info                            : Picture based subtitle format used on BDs/HD-DVDs
  455. Duration                                 : 1 h 31 min
  456. Bit rate                                 : 32.3 kb/s
  457. Count of elements                        : 1754
  458. Stream size                              : 21.3 MiB (0%)
  459. Language                                 : Finnish
  460. Default                                  : No
  461. Forced                                   : No
  462. Original source medium                   : Blu-ray
  463. Text #17
  464. ID                                       : 27
  465. ID in the original source medium         : 4622 (0x120E)
  466. Format                                   : PGS
  467. Muxing mode                              : zlib
  468. Codec ID                                 : S_HDMV/PGS
  469. Codec ID/Info                            : Picture based subtitle format used on BDs/HD-DVDs
  470. Duration                                 : 1 h 31 min
  471. Bit rate                                 : 31.0 kb/s
  472. Count of elements                        : 2642
  473. Stream size                              : 20.4 MiB (0%)
  474. Language                                 : Hebrew
  475. Default                                  : No
  476. Forced                                   : No
  477. Original source medium                   : Blu-ray
  478. Text #18
  479. ID                                       : 28
  480. ID in the original source medium         : 4623 (0x120F)
  481. Format                                   : PGS
  482. Muxing mode                              : zlib
  483. Codec ID                                 : S_HDMV/PGS
  484. Codec ID/Info                            : Picture based subtitle format used on BDs/HD-DVDs
  485. Duration                                 : 1 h 31 min
  486. Bit rate                                 : 37.0 kb/s
  487. Count of elements                        : 2638
  488. Stream size                              : 24.3 MiB (0%)
  489. Language                                 : Hindi
  490. Default                                  : No
  491. Forced                                   : No
  492. Original source medium                   : Blu-ray
  493. Text #19
  494. ID                                       : 29
  495. ID in the original source medium         : 4624 (0x1210)
  496. Format                                   : PGS
  497. Muxing mode                              : zlib
  498. Codec ID                                 : S_HDMV/PGS
  499. Codec ID/Info                            : Picture based subtitle format used on BDs/HD-DVDs
  500. Duration                                 : 1 h 31 min
  501. Bit rate                                 : 33.5 kb/s
  502. Count of elements                        : 2584
  503. Stream size                              : 22.0 MiB (0%)
  504. Language                                 : Hungarian
  505. Default                                  : No
  506. Forced                                   : No
  507. Original source medium                   : Blu-ray
  508. Text #20
  509. ID                                       : 30
  510. ID in the original source medium         : 4624 (0x1210)
  511. Format                                   : PGS
  512. Muxing mode                              : zlib
  513. Codec ID                                 : S_HDMV/PGS
  514. Codec ID/Info                            : Picture based subtitle format used on BDs/HD-DVDs
  515. Duration                                 : 1 h 26 min
  516. Bit rate                                 : 147 b/s
  517. Count of elements                        : 12
  518. Stream size                              : 93.7 KiB (0%)
  519. Language                                 : Hungarian
  520. Default                                  : No
  521. Forced                                   : No
  522. Original source medium                   : Blu-ray
  523. Text #21
  524. ID                                       : 31
  525. ID in the original source medium         : 4625 (0x1211)
  526. Format                                   : PGS
  527. Muxing mode                              : zlib
  528. Codec ID                                 : S_HDMV/PGS
  529. Codec ID/Info                            : Picture based subtitle format used on BDs/HD-DVDs
  530. Duration                                 : 1 h 31 min
  531. Bit rate                                 : 41.1 kb/s
  532. Count of elements                        : 2652
  533. Stream size                              : 27.0 MiB (0%)
  534. Language                                 : Icelandic
  535. Default                                  : No
  536. Forced                                   : No
  537. Original source medium                   : Blu-ray
  538. Text #22
  539. ID                                       : 32
  540. ID in the original source medium         : 4626 (0x1212)
  541. Format                                   : PGS
  542. Muxing mode                              : zlib
  543. Codec ID                                 : S_HDMV/PGS
  544. Codec ID/Info                            : Picture based subtitle format used on BDs/HD-DVDs
  545. Duration                                 : 1 h 31 min
  546. Bit rate                                 : 27.9 kb/s
  547. Count of elements                        : 1754
  548. Stream size                              : 18.4 MiB (0%)
  549. Language                                 : Norwegian
  550. Default                                  : No
  551. Forced                                   : No
  552. Original source medium                   : Blu-ray
  553. Text #23
  554. ID                                       : 33
  555. ID in the original source medium         : 4627 (0x1213)
  556. Format                                   : PGS
  557. Muxing mode                              : zlib
  558. Codec ID                                 : S_HDMV/PGS
  559. Codec ID/Info                            : Picture based subtitle format used on BDs/HD-DVDs
  560. Duration                                 : 1 h 31 min
  561. Bit rate                                 : 32.3 kb/s
  562. Count of elements                        : 2638
  563. Stream size                              : 21.3 MiB (0%)
  564. Language                                 : Polish
  565. Default                                  : No
  566. Forced                                   : No
  567. Original source medium                   : Blu-ray
  568. Text #24
  569. ID                                       : 34
  570. ID in the original source medium         : 4628 (0x1214)
  571. Format                                   : PGS
  572. Muxing mode                              : zlib
  573. Codec ID                                 : S_HDMV/PGS
  574. Codec ID/Info                            : Picture based subtitle format used on BDs/HD-DVDs
  575. Duration                                 : 1 h 31 min
  576. Bit rate                                 : 38.2 kb/s
  577. Count of elements                        : 2738
  578. Stream size                              : 25.1 MiB (0%)
  579. Language                                 : Portuguese
  580. Default                                  : No
  581. Forced                                   : No
  582. Original source medium                   : Blu-ray
  583. Text #25
  584. ID                                       : 35
  585. ID in the original source medium         : 4629 (0x1215)
  586. Format                                   : PGS
  587. Muxing mode                              : zlib
  588. Codec ID                                 : S_HDMV/PGS
  589. Codec ID/Info                            : Picture based subtitle format used on BDs/HD-DVDs
  590. Duration                                 : 1 h 31 min
  591. Bit rate                                 : 39.5 kb/s
  592. Count of elements                        : 2746
  593. Stream size                              : 26.0 MiB (0%)
  594. Language                                 : Romanian
  595. Default                                  : No
  596. Forced                                   : No
  597. Original source medium                   : Blu-ray
  598. Text #26
  599. ID                                       : 36
  600. ID in the original source medium         : 4630 (0x1216)
  601. Format                                   : PGS
  602. Muxing mode                              : zlib
  603. Codec ID                                 : S_HDMV/PGS
  604. Codec ID/Info                            : Picture based subtitle format used on BDs/HD-DVDs
  605. Duration                                 : 1 h 31 min
  606. Bit rate                                 : 32.2 kb/s
  607. Count of elements                        : 2636
  608. Stream size                              : 21.1 MiB (0%)
  609. Language                                 : Slovenian
  610. Default                                  : No
  611. Forced                                   : No
  612. Original source medium                   : Blu-ray
  613. Text #27
  614. ID                                       : 37
  615. ID in the original source medium         : 4631 (0x1217)
  616. Format                                   : PGS
  617. Muxing mode                              : zlib
  618. Codec ID                                 : S_HDMV/PGS
  619. Codec ID/Info                            : Picture based subtitle format used on BDs/HD-DVDs
  620. Duration                                 : 1 h 31 min
  621. Bit rate                                 : 28.9 kb/s
  622. Count of elements                        : 1758
  623. Stream size                              : 19.0 MiB (0%)
  624. Language                                 : Swedish
  625. Default                                  : No
  626. Forced                                   : No
  627. Original source medium                   : Blu-ray
  628. Text #28
  629. ID                                       : 38
  630. ID in the original source medium         : 4632 (0x1218)
  631. Format                                   : PGS
  632. Muxing mode                              : zlib
  633. Codec ID                                 : S_HDMV/PGS
  634. Codec ID/Info                            : Picture based subtitle format used on BDs/HD-DVDs
  635. Duration                                 : 1 h 31 min
  636. Bit rate                                 : 36.8 kb/s
  637. Count of elements                        : 2516
  638. Stream size                              : 24.2 MiB (0%)
  639. Language                                 : Thai
  640. Default                                  : No
  641. Forced                                   : No
  642. Original source medium                   : Blu-ray
  643. Text #29
  644. ID                                       : 39
  645. ID in the original source medium         : 4633 (0x1219)
  646. Format                                   : PGS
  647. Muxing mode                              : zlib
  648. Codec ID                                 : S_HDMV/PGS
  649. Codec ID/Info                            : Picture based subtitle format used on BDs/HD-DVDs
  650. Duration                                 : 1 h 31 min
  651. Bit rate                                 : 41.2 kb/s
  652. Count of elements                        : 2654
  653. Stream size                              : 27.1 MiB (0%)
  654. Language                                 : Turkish
  655. Default                                  : No
  656. Forced                                   : No
  657. Original source medium                   : Blu-ray
  658. Text #30
  659. ID                                       : 40
  660. ID in the original source medium         : 4634 (0x121A)
  661. Format                                   : PGS
  662. Muxing mode                              : zlib
  663. Codec ID                                 : S_HDMV/PGS
  664. Codec ID/Info                            : Picture based subtitle format used on BDs/HD-DVDs
  665. Duration                                 : 1 h 32 min
  666. Bit rate                                 : 67.6 kb/s
  667. Count of elements                        : 3360
  668. Stream size                              : 44.8 MiB (0%)
  669. Language                                 : English
  670. Default                                  : No
  671. Forced                                   : No
  672. Original source medium                   : Blu-ray
  673. Text #31
  674. ID                                       : 41
  675. ID in the original source medium         : 4635 (0x121B)
  676. Format                                   : PGS
  677. Muxing mode                              : zlib
  678. Codec ID                                 : S_HDMV/PGS
  679. Codec ID/Info                            : Picture based subtitle format used on BDs/HD-DVDs
  680. Duration                                 : 1 h 33 min
  681. Bit rate                                 : 54.0 kb/s
  682. Count of elements                        : 3340
  683. Stream size                              : 36.1 MiB (0%)
  684. Language                                 : French
  685. Default                                  : No
  686. Forced                                   : No
  687. Original source medium                   : Blu-ray
  688. Text #32
  689. ID                                       : 42
  690. ID in the original source medium         : 4636 (0x121C)
  691. Format                                   : PGS
  692. Muxing mode                              : zlib
  693. Codec ID                                 : S_HDMV/PGS
  694. Codec ID/Info                            : Picture based subtitle format used on BDs/HD-DVDs
  695. Duration                                 : 1 h 33 min
  696. Bit rate                                 : 57.1 kb/s
  697. Count of elements                        : 3113
  698. Stream size                              : 38.2 MiB (0%)
  699. Language                                 : Dutch
  700. Default                                  : No
  701. Forced                                   : No
  702. Original source medium                   : Blu-ray
  703. Text #33
  704. ID                                       : 43
  705. ID in the original source medium         : 4637 (0x121D)
  706. Format                                   : PGS
  707. Muxing mode                              : zlib
  708. Codec ID                                 : S_HDMV/PGS
  709. Codec ID/Info                            : Picture based subtitle format used on BDs/HD-DVDs
  710. Duration                                 : 1 h 33 min
  711. Bit rate                                 : 66.0 kb/s
  712. Count of elements                        : 3401
  713. Stream size                              : 44.1 MiB (0%)
  714. Language                                 : English
  715. Default                                  : No
  716. Forced                                   : No
  717. Original source medium                   : Blu-ray
  718. Text #34
  719. ID                                       : 44
  720. ID in the original source medium         : 4638 (0x121E)
  721. Format                                   : PGS
  722. Muxing mode                              : zlib
  723. Codec ID                                 : S_HDMV/PGS
  724. Codec ID/Info                            : Picture based subtitle format used on BDs/HD-DVDs
  725. Duration                                 : 1 h 33 min
  726. Bit rate                                 : 56.9 kb/s
  727. Count of elements                        : 3327
  728. Stream size                              : 38.1 MiB (0%)
  729. Language                                 : French
  730. Default                                  : No
  731. Forced                                   : No
  732. Original source medium                   : Blu-ray
  733. Text #35
  734. ID                                       : 45
  735. ID in the original source medium         : 4639 (0x121F)
  736. Format                                   : PGS
  737. Muxing mode                              : zlib
  738. Codec ID                                 : S_HDMV/PGS
  739. Codec ID/Info                            : Picture based subtitle format used on BDs/HD-DVDs
  740. Duration                                 : 1 h 33 min
  741. Bit rate                                 : 55.3 kb/s
  742. Count of elements                        : 3196
  743. Stream size                              : 37.0 MiB (0%)
  744. Language                                 : Dutch
  745. Default                                  : No
  746. Forced                                   : No
  747. Original source medium                   : Blu-ray
  748. Menu
  749. 00:00:00.000                             : en:Chapter 01
  750. 00:06:44.654                             : en:Chapter 02
  751. 00:11:26.811                             : en:Chapter 03
  752. 00:14:07.263                             : en:Chapter 04
  753. 00:18:04.166                             : en:Chapter 05
  754. 00:23:44.047                             : en:Chapter 06
  755. 00:27:32.692                             : en:Chapter 07
  756. 00:30:54.018                             : en:Chapter 08
  757. 00:38:12.164                             : en:Chapter 09
  758. 00:42:29.547                             : en:Chapter 10
  759. 00:48:12.180                             : en:Chapter 11
  760. 00:55:56.936                             : en:Chapter 12
  761. 01:02:50.516                             : en:Chapter 13
  762. 01:09:59.987                             : en:Chapter 14
  763. 01:20:39.042                             : en:Chapter 15
  764. 01:29:22.648                             : en:Chapter 16
复制代码



4K321提示您 点击下方附件即可下载

万世魔星 Monty.Pythons.Life.of.Brian.1979.1080p.BluRay.REMUX.AVC.DTS-HD.MA.TrueHD.5.1-FGT 27.27GB

Monty.Pythons.Life.of.Brian.1979.1080p.BluRay.REMUX.AVC.DTS-HD.MA.TrueHD.5.1-FGT.torrent ( 34.78 KB )

回复

使用道具 举报

全部回复0 显示全部楼层

声明:您在社区发表的所有信息仅代表用户个人观点,与本网站立场无关,希望各位烧友理性发言,不发表违法国家法律禁止的话题。

您需要登录后才可以回帖 登录 | 立即注册

本版积分规则

联系客服 关注微信 下载APP 返回顶部 返回列表