开启左侧

[剧情片] 至暗之时 The.Darkest.Hour.2011.1080p.BluRay.REMUX.AVC.DTS-HD.MA.5.1-FGT 21.59GB

蓝鸟 发表于 2022-6-2 21:10:58 | 显示全部楼层 |阅读模式

至暗之时 The.Darkest.Hour.2011.1080p.BluRay.REMUX.AVC.DTS-HD.MA.5.1-FGT 21.59GB

至暗之时 The.Darkest.Hour.2011.1080p.BluRay.REMUX.AVC.DTS-HD.MA.5.1-FGT 21.59GB


译  名 至暗之时 / 世纪末光煞(港) / 黑暗時刻(台) / 最黑暗的小时 / 最黑暗的时刻
片  名 The Darkest Hour
年  代 2011
产  地 美国
类  别 剧情 / 动作 / 科幻 / 惊悚
语  言 英语 / 俄语
上映日期 2011-12-25(美国)
豆瓣评分 5.4/10 (8835人评价)
片  长 89分钟
导  演 克里斯·格拉克 Chris Gorak
编  剧 乔·斯派茨 Jon Spaihts
       莱斯利·博希姆 Leslie Bohem
       M.T. Ahern M.T. Ahern
演  员 埃米尔·赫斯基 Emile Hirsch
       奥莉薇·瑟尔比 Olivia Thirlby
       麦克思·明格拉 Max Minghella
       瑞切尔·泰勒 Rachael Taylor
       乔尔·金纳曼 Joel Kinnaman
       维诺妮卡·奥泽尔娃 Veronika Ozerova
       尤里·库琴科 Yuriy Kutsenko
       彼得·费奥多罗夫 Pyotr Fyodorov
       达托·巴赫塔泽 Dato Bakhtadze
       阿诺恩·米尔坎 Arnon Milchan
       提莫·贝克曼贝托夫 Timur Bekmambetov
       德米特里·基谢廖夫 Dmitriy Kiselev
        Steven Hansen

简  介

西恩(埃米尔·赫斯基 Emile Hirsch 饰)和本(麦克思·明格拉 Max Minghella 饰)是两个来自美国软件工程师,因为新开发了一款软件,跑去莫斯科谈生意,晚上去酒吧找乐,遇到从美国跑来旅游的娜塔莉(奥莉薇·瑟尔比 Olivia Thirlby 饰)和安(瑞切尔·泰勒 Rachael Taylor 饰),四个人调情玩乐,却遇上天降白光,大地浩劫,原来是以能量场形态出现的外星人入侵莫斯科,碰触的瞬间就能让任何生命体灰飞烟灭。四个美国年轻人及时藏身,夜晚来临后试图逃出一片涂炭的红场,他们发现电可以感应外星人存在,又找到一位在家里布上电磁阵的极客老头。大家齐心协力,试图找到所有幸存者,利用电磁学知识,对外星人反戈一击……


影片参数
  1. Video
  2. ID                                       : 1
  3. ID in the original source medium         : 4113 (0x1011)
  4. Format                                   : AVC
  5. Format/Info                              : Advanced Video Codec
  6. Format profile                           : [email protected]
  7. Format settings                          : CABAC / 2 Ref Frames
  8. Format settings, CABAC                   : Yes
  9. Format settings, Reference frames        : 2 frames
  10. Codec ID                                 : V_MPEG4/ISO/AVC
  11. Duration                                 : 1 h 29 min
  12. Bit rate mode                            : Variable
  13. Bit rate                                 : 25.4 Mb/s
  14. Width                                    : 1 920 pixels
  15. Height                                   : 1 080 pixels
  16. Display aspect ratio                     : 16:9
  17. Frame rate mode                          : Constant
  18. Frame rate                               : 23.976 (24000/1001/189150) FPS
  19. Color space                              : YUV
  20. Chroma subsampling                       : 4:2:0
  21. Bit depth                                : 8 bits
  22. Scan type                                : Progressive
  23. Bits/(Pixel*Frame)                       : 0.512
  24. Stream size                              : 15.9 GiB (74%)
  25. Language                                 : English
  26. Default                                  : No
  27. Forced                                   : No
  28. Original source medium                   : Blu-ray
  29. Audio #1
  30. ID                                       : 2
  31. ID in the original source medium         : 4352 (0x1100)
  32. Format                                   : DTS XLL
  33. Format/Info                              : Digital Theater Systems
  34. Commercial name                          : DTS-HD Master Audio
  35. Codec ID                                 : A_DTS
  36. Duration                                 : 1 h 29 min
  37. Bit rate mode                            : Variable
  38. Bit rate                                 : 3 775 kb/s
  39. Channel(s)                               : 6 channels
  40. Channel layout                           : C L R Ls Rs LFE
  41. Sampling rate                            : 48.0 kHz
  42. Frame rate                               : 93.750 FPS (512 SPF)
  43. Bit depth                                : 24 bits
  44. Compression mode                         : Lossless
  45. Stream size                              : 2.35 GiB (11%)
  46. Title                                    : DTS-HD MA 5.1
  47. Language                                 : English
  48. Default                                  : Yes
  49. Forced                                   : No
  50. Original source medium                   : Blu-ray
  51. Audio #2
  52. ID                                       : 3
  53. ID in the original source medium         : 4353 (0x1101)
  54. Format                                   : DTS
  55. Format/Info                              : Digital Theater Systems
  56. Codec ID                                 : A_DTS
  57. Duration                                 : 1 h 29 min
  58. Bit rate mode                            : Constant
  59. Bit rate                                 : 768 kb/s
  60. Channel(s)                               : 6 channels
  61. Channel layout                           : C L R Ls Rs LFE
  62. Sampling rate                            : 48.0 kHz
  63. Frame rate                               : 93.750 FPS (512 SPF)
  64. Bit depth                                : 24 bits
  65. Compression mode                         : Lossy
  66. Stream size                              : 490 MiB (2%)
  67. Title                                    : DTS 5.1
  68. Language                                 : Japanese
  69. Default                                  : No
  70. Forced                                   : No
  71. Original source medium                   : Blu-ray
  72. Audio #3
  73. ID                                       : 4
  74. ID in the original source medium         : 4354 (0x1102)
  75. Format                                   : DTS
  76. Format/Info                              : Digital Theater Systems
  77. Codec ID                                 : A_DTS
  78. Duration                                 : 1 h 29 min
  79. Bit rate mode                            : Constant
  80. Bit rate                                 : 768 kb/s
  81. Channel(s)                               : 6 channels
  82. Channel layout                           : C L R Ls Rs LFE
  83. Sampling rate                            : 48.0 kHz
  84. Frame rate                               : 93.750 FPS (512 SPF)
  85. Bit depth                                : 24 bits
  86. Compression mode                         : Lossy
  87. Stream size                              : 490 MiB (2%)
  88. Title                                    : DTS 5.1
  89. Language                                 : Russian
  90. Default                                  : No
  91. Forced                                   : No
  92. Original source medium                   : Blu-ray
  93. Audio #4
  94. ID                                       : 5
  95. ID in the original source medium         : 4355 (0x1103)
  96. Format                                   : AC-3
  97. Format/Info                              : Audio Coding 3
  98. Commercial name                          : Dolby Digital
  99. Codec ID                                 : A_AC3
  100. Duration                                 : 1 h 29 min
  101. Bit rate mode                            : Constant
  102. Bit rate                                 : 448 kb/s
  103. Channel(s)                               : 6 channels
  104. Channel layout                           : L R C LFE Ls Rs
  105. Sampling rate                            : 48.0 kHz
  106. Frame rate                               : 31.250 FPS (1536 SPF)
  107. Compression mode                         : Lossy
  108. Stream size                              : 286 MiB (1%)
  109. Title                                    : DD 5.1
  110. Language                                 : Czech
  111. Service kind                             : Complete Main
  112. Default                                  : No
  113. Forced                                   : No
  114. Original source medium                   : Blu-ray
  115. Audio #5
  116. ID                                       : 6
  117. ID in the original source medium         : 4356 (0x1104)
  118. Format                                   : AC-3
  119. Format/Info                              : Audio Coding 3
  120. Commercial name                          : Dolby Digital
  121. Codec ID                                 : A_AC3
  122. Duration                                 : 1 h 29 min
  123. Bit rate mode                            : Constant
  124. Bit rate                                 : 448 kb/s
  125. Channel(s)                               : 6 channels
  126. Channel layout                           : L R C LFE Ls Rs
  127. Sampling rate                            : 48.0 kHz
  128. Frame rate                               : 31.250 FPS (1536 SPF)
  129. Compression mode                         : Lossy
  130. Stream size                              : 286 MiB (1%)
  131. Title                                    : DD 5.1
  132. Language                                 : Hindi
  133. Service kind                             : Complete Main
  134. Default                                  : No
  135. Forced                                   : No
  136. Original source medium                   : Blu-ray
  137. Audio #6
  138. ID                                       : 7
  139. ID in the original source medium         : 4357 (0x1105)
  140. Format                                   : AC-3
  141. Format/Info                              : Audio Coding 3
  142. Commercial name                          : Dolby Digital
  143. Codec ID                                 : A_AC3
  144. Duration                                 : 1 h 29 min
  145. Bit rate mode                            : Constant
  146. Bit rate                                 : 448 kb/s
  147. Channel(s)                               : 6 channels
  148. Channel layout                           : L R C LFE Ls Rs
  149. Sampling rate                            : 48.0 kHz
  150. Frame rate                               : 31.250 FPS (1536 SPF)
  151. Compression mode                         : Lossy
  152. Stream size                              : 286 MiB (1%)
  153. Title                                    : DD 5.1
  154. Language                                 : Hungarian
  155. Service kind                             : Complete Main
  156. Default                                  : No
  157. Forced                                   : No
  158. Original source medium                   : Blu-ray
  159. Audio #7
  160. ID                                       : 8
  161. ID in the original source medium         : 4358 (0x1106)
  162. Format                                   : AC-3
  163. Format/Info                              : Audio Coding 3
  164. Commercial name                          : Dolby Digital
  165. Codec ID                                 : A_AC3
  166. Duration                                 : 1 h 29 min
  167. Bit rate mode                            : Constant
  168. Bit rate                                 : 448 kb/s
  169. Channel(s)                               : 6 channels
  170. Channel layout                           : L R C LFE Ls Rs
  171. Sampling rate                            : 48.0 kHz
  172. Frame rate                               : 31.250 FPS (1536 SPF)
  173. Compression mode                         : Lossy
  174. Stream size                              : 286 MiB (1%)
  175. Title                                    : DD 5.1
  176. Language                                 : Polish
  177. Service kind                             : Complete Main
  178. Default                                  : No
  179. Forced                                   : No
  180. Original source medium                   : Blu-ray
  181. Audio #8
  182. ID                                       : 9
  183. ID in the original source medium         : 4359 (0x1107)
  184. Format                                   : AC-3
  185. Format/Info                              : Audio Coding 3
  186. Commercial name                          : Dolby Digital
  187. Codec ID                                 : A_AC3
  188. Duration                                 : 1 h 29 min
  189. Bit rate mode                            : Constant
  190. Bit rate                                 : 448 kb/s
  191. Channel(s)                               : 6 channels
  192. Channel layout                           : L R C LFE Ls Rs
  193. Sampling rate                            : 48.0 kHz
  194. Frame rate                               : 31.250 FPS (1536 SPF)
  195. Compression mode                         : Lossy
  196. Stream size                              : 286 MiB (1%)
  197. Title                                    : DD 5.1
  198. Language                                 : Thai
  199. Service kind                             : Complete Main
  200. Default                                  : No
  201. Forced                                   : No
  202. Original source medium                   : Blu-ray
  203. Audio #9
  204. ID                                       : 10
  205. ID in the original source medium         : 4360 (0x1108)
  206. Format                                   : AC-3
  207. Format/Info                              : Audio Coding 3
  208. Commercial name                          : Dolby Digital
  209. Codec ID                                 : A_AC3
  210. Duration                                 : 1 h 29 min
  211. Bit rate mode                            : Constant
  212. Bit rate                                 : 448 kb/s
  213. Channel(s)                               : 6 channels
  214. Channel layout                           : L R C LFE Ls Rs
  215. Sampling rate                            : 48.0 kHz
  216. Frame rate                               : 31.250 FPS (1536 SPF)
  217. Compression mode                         : Lossy
  218. Stream size                              : 286 MiB (1%)
  219. Title                                    : DD 5.1
  220. Language                                 : Turkish
  221. Service kind                             : Complete Main
  222. Default                                  : No
  223. Forced                                   : No
  224. Original source medium                   : Blu-ray
  225. Audio #10
  226. ID                                       : 11
  227. ID in the original source medium         : 4361 (0x1109)
  228. Format                                   : AC-3
  229. Format/Info                              : Audio Coding 3
  230. Commercial name                          : Dolby Digital
  231. Codec ID                                 : A_AC3
  232. Duration                                 : 1 h 29 min
  233. Bit rate mode                            : Constant
  234. Bit rate                                 : 448 kb/s
  235. Channel(s)                               : 6 channels
  236. Channel layout                           : L R C LFE Ls Rs
  237. Sampling rate                            : 48.0 kHz
  238. Frame rate                               : 31.250 FPS (1536 SPF)
  239. Compression mode                         : Lossy
  240. Stream size                              : 286 MiB (1%)
  241. Title                                    : DD 5.1
  242. Language                                 : Ukrainian
  243. Service kind                             : Complete Main
  244. Default                                  : No
  245. Forced                                   : No
  246. Original source medium                   : Blu-ray
  247. Audio #11
  248. ID                                       : 12
  249. ID in the original source medium         : 4362 (0x110A)
  250. Format                                   : AC-3
  251. Format/Info                              : Audio Coding 3
  252. Commercial name                          : Dolby Digital
  253. Codec ID                                 : A_AC3
  254. Duration                                 : 1 h 29 min
  255. Bit rate mode                            : Constant
  256. Bit rate                                 : 448 kb/s
  257. Channel(s)                               : 6 channels
  258. Channel layout                           : L R C LFE Ls Rs
  259. Sampling rate                            : 48.0 kHz
  260. Frame rate                               : 31.250 FPS (1536 SPF)
  261. Compression mode                         : Lossy
  262. Stream size                              : 286 MiB (1%)
  263. Title                                    : DD 5.1
  264. Language                                 : Urdu
  265. Service kind                             : Complete Main
  266. Default                                  : No
  267. Forced                                   : No
  268. Original source medium                   : Blu-ray
  269. Text #1
  270. ID                                       : 13
  271. Format                                   : UTF-8
  272. Codec ID                                 : S_TEXT/UTF8
  273. Codec ID/Info                            : UTF-8 Plain Text
  274. Duration                                 : 1 h 10 min
  275. Bit rate                                 : 1 b/s
  276. Count of elements                        : 44
  277. Stream size                              : 971 Bytes (0%)
  278. Title                                    : FORCED
  279. Language                                 : English
  280. Default                                  : No
  281. Forced                                   : Yes
  282. Text #2
  283. ID                                       : 14
  284. Format                                   : UTF-8
  285. Codec ID                                 : S_TEXT/UTF8
  286. Codec ID/Info                            : UTF-8 Plain Text
  287. Duration                                 : 1 h 19 min
  288. Bit rate                                 : 39 b/s
  289. Count of elements                        : 930
  290. Stream size                              : 23.2 KiB (0%)
  291. Language                                 : English
  292. Default                                  : Yes
  293. Forced                                   : No
  294. Text #3
  295. ID                                       : 15
  296. ID in the original source medium         : 4608 (0x1200)
  297. Format                                   : PGS
  298. Muxing mode                              : zlib
  299. Codec ID                                 : S_HDMV/PGS
  300. Codec ID/Info                            : Picture based subtitle format used on BDs/HD-DVDs
  301. Duration                                 : 1 h 25 min
  302. Bit rate                                 : 14.2 kb/s
  303. Count of elements                        : 1688
  304. Stream size                              : 8.72 MiB (0%)
  305. Language                                 : Japanese
  306. Default                                  : No
  307. Forced                                   : No
  308. Original source medium                   : Blu-ray
  309. Text #4
  310. ID                                       : 16
  311. ID in the original source medium         : 4609 (0x1201)
  312. Format                                   : PGS
  313. Muxing mode                              : zlib
  314. Codec ID                                 : S_HDMV/PGS
  315. Codec ID/Info                            : Picture based subtitle format used on BDs/HD-DVDs
  316. Duration                                 : 1 h 12 min
  317. Bit rate                                 : 441 b/s
  318. Count of elements                        : 48
  319. Stream size                              : 235 KiB (0%)
  320. Language                                 : Japanese
  321. Default                                  : No
  322. Forced                                   : No
  323. Original source medium                   : Blu-ray
  324. Text #5
  325. ID                                       : 17
  326. ID in the original source medium         : 4609 (0x1201)
  327. Format                                   : PGS
  328. Muxing mode                              : zlib
  329. Codec ID                                 : S_HDMV/PGS
  330. Codec ID/Info                            : Picture based subtitle format used on BDs/HD-DVDs
  331. Duration                                 : 1 h 12 min
  332. Bit rate                                 : 441 b/s
  333. Count of elements                        : 48
  334. Stream size                              : 235 KiB (0%)
  335. Language                                 : Japanese
  336. Default                                  : No
  337. Forced                                   : No
  338. Original source medium                   : Blu-ray
  339. Text #6
  340. ID                                       : 18
  341. ID in the original source medium         : 4610 (0x1202)
  342. Format                                   : PGS
  343. Muxing mode                              : zlib
  344. Codec ID                                 : S_HDMV/PGS
  345. Codec ID/Info                            : Picture based subtitle format used on BDs/HD-DVDs
  346. Duration                                 : 1 h 25 min
  347. Bit rate                                 : 19.7 kb/s
  348. Count of elements                        : 1906
  349. Stream size                              : 12.1 MiB (0%)
  350. Language                                 : Russian
  351. Default                                  : No
  352. Forced                                   : No
  353. Original source medium                   : Blu-ray
  354. Text #7
  355. ID                                       : 19
  356. ID in the original source medium         : 4610 (0x1202)
  357. Format                                   : PGS
  358. Muxing mode                              : zlib
  359. Codec ID                                 : S_HDMV/PGS
  360. Codec ID/Info                            : Picture based subtitle format used on BDs/HD-DVDs
  361. Duration                                 : 1 h 22 min
  362. Bit rate                                 : 112 b/s
  363. Count of elements                        : 14
  364. Stream size                              : 68.6 KiB (0%)
  365. Language                                 : Russian
  366. Default                                  : No
  367. Forced                                   : No
  368. Original source medium                   : Blu-ray
  369. Text #8
  370. ID                                       : 20
  371. ID in the original source medium         : 4611 (0x1203)
  372. Format                                   : PGS
  373. Muxing mode                              : zlib
  374. Codec ID                                 : S_HDMV/PGS
  375. Codec ID/Info                            : Picture based subtitle format used on BDs/HD-DVDs
  376. Duration                                 : 1 h 25 min
  377. Bit rate                                 : 14.0 kb/s
  378. Count of elements                        : 2004
  379. Stream size                              : 8.57 MiB (0%)
  380. Language                                 : Arabic
  381. Default                                  : No
  382. Forced                                   : No
  383. Original source medium                   : Blu-ray
  384. Text #9
  385. ID                                       : 21
  386. ID in the original source medium         : 4612 (0x1204)
  387. Format                                   : PGS
  388. Muxing mode                              : zlib
  389. Codec ID                                 : S_HDMV/PGS
  390. Codec ID/Info                            : Picture based subtitle format used on BDs/HD-DVDs
  391. Duration                                 : 1 h 25 min
  392. Bit rate                                 : 22.1 kb/s
  393. Count of elements                        : 2028
  394. Stream size                              : 13.5 MiB (0%)
  395. Language                                 : Bulgarian
  396. Default                                  : No
  397. Forced                                   : No
  398. Original source medium                   : Blu-ray
  399. Text #10
  400. ID                                       : 22
  401. ID in the original source medium         : 4613 (0x1205)
  402. Format                                   : PGS
  403. Muxing mode                              : zlib
  404. Codec ID                                 : S_HDMV/PGS
  405. Codec ID/Info                            : Picture based subtitle format used on BDs/HD-DVDs
  406. Duration                                 : 1 h 28 min
  407. Bit rate                                 : 20.2 kb/s
  408. Count of elements                        : 2040
  409. Stream size                              : 12.7 MiB (0%)
  410. Language                                 : Chinese
  411. Default                                  : No
  412. Forced                                   : No
  413. Original source medium                   : Blu-ray
  414. Text #11
  415. ID                                       : 23
  416. ID in the original source medium         : 4614 (0x1206)
  417. Format                                   : PGS
  418. Muxing mode                              : zlib
  419. Codec ID                                 : S_HDMV/PGS
  420. Codec ID/Info                            : Picture based subtitle format used on BDs/HD-DVDs
  421. Duration                                 : 1 h 28 min
  422. Bit rate                                 : 20.0 kb/s
  423. Count of elements                        : 2002
  424. Stream size                              : 12.6 MiB (0%)
  425. Language                                 : Croatian
  426. Default                                  : No
  427. Forced                                   : No
  428. Original source medium                   : Blu-ray
  429. Text #12
  430. ID                                       : 24
  431. ID in the original source medium         : 4615 (0x1207)
  432. Format                                   : PGS
  433. Muxing mode                              : zlib
  434. Codec ID                                 : S_HDMV/PGS
  435. Codec ID/Info                            : Picture based subtitle format used on BDs/HD-DVDs
  436. Duration                                 : 1 h 25 min
  437. Bit rate                                 : 20.3 kb/s
  438. Count of elements                        : 2028
  439. Stream size                              : 12.4 MiB (0%)
  440. Language                                 : Czech
  441. Default                                  : No
  442. Forced                                   : No
  443. Original source medium                   : Blu-ray
  444. Text #13
  445. ID                                       : 25
  446. ID in the original source medium         : 4615 (0x1207)
  447. Format                                   : PGS
  448. Muxing mode                              : zlib
  449. Codec ID                                 : S_HDMV/PGS
  450. Codec ID/Info                            : Picture based subtitle format used on BDs/HD-DVDs
  451. Duration                                 : 1 h 22 min
  452. Bit rate                                 : 1 393 b/s
  453. Count of elements                        : 128
  454. Stream size                              : 846 KiB (0%)
  455. Language                                 : Czech
  456. Default                                  : No
  457. Forced                                   : No
  458. Original source medium                   : Blu-ray
  459. Text #14
  460. ID                                       : 26
  461. ID in the original source medium         : 4616 (0x1208)
  462. Format                                   : PGS
  463. Muxing mode                              : zlib
  464. Codec ID                                 : S_HDMV/PGS
  465. Codec ID/Info                            : Picture based subtitle format used on BDs/HD-DVDs
  466. Duration                                 : 1 h 28 min
  467. Bit rate                                 : 22.1 kb/s
  468. Count of elements                        : 2004
  469. Stream size                              : 13.9 MiB (0%)
  470. Language                                 : Estonian
  471. Default                                  : No
  472. Forced                                   : No
  473. Original source medium                   : Blu-ray
  474. Text #15
  475. ID                                       : 27
  476. ID in the original source medium         : 4617 (0x1209)
  477. Format                                   : PGS
  478. Muxing mode                              : zlib
  479. Codec ID                                 : S_HDMV/PGS
  480. Codec ID/Info                            : Picture based subtitle format used on BDs/HD-DVDs
  481. Duration                                 : 1 h 25 min
  482. Bit rate                                 : 19.6 kb/s
  483. Count of elements                        : 1594
  484. Stream size                              : 12.0 MiB (0%)
  485. Language                                 : Greek
  486. Default                                  : No
  487. Forced                                   : No
  488. Original source medium                   : Blu-ray
  489. Text #16
  490. ID                                       : 28
  491. ID in the original source medium         : 4618 (0x120A)
  492. Format                                   : PGS
  493. Muxing mode                              : zlib
  494. Codec ID                                 : S_HDMV/PGS
  495. Codec ID/Info                            : Picture based subtitle format used on BDs/HD-DVDs
  496. Duration                                 : 1 h 25 min
  497. Bit rate                                 : 17.7 kb/s
  498. Count of elements                        : 2004
  499. Stream size                              : 10.8 MiB (0%)
  500. Language                                 : Hebrew
  501. Default                                  : No
  502. Forced                                   : No
  503. Original source medium                   : Blu-ray
  504. Text #17
  505. ID                                       : 29
  506. ID in the original source medium         : 4619 (0x120B)
  507. Format                                   : PGS
  508. Muxing mode                              : zlib
  509. Codec ID                                 : S_HDMV/PGS
  510. Codec ID/Info                            : Picture based subtitle format used on BDs/HD-DVDs
  511. Duration                                 : 1 h 22 min
  512. Bit rate                                 : 107 b/s
  513. Count of elements                        : 14
  514. Stream size                              : 65.1 KiB (0%)
  515. Language                                 : Hindi
  516. Default                                  : No
  517. Forced                                   : No
  518. Original source medium                   : Blu-ray
  519. Text #18
  520. ID                                       : 30
  521. ID in the original source medium         : 4619 (0x120B)
  522. Format                                   : PGS
  523. Muxing mode                              : zlib
  524. Codec ID                                 : S_HDMV/PGS
  525. Codec ID/Info                            : Picture based subtitle format used on BDs/HD-DVDs
  526. Duration                                 : 1 h 22 min
  527. Bit rate                                 : 107 b/s
  528. Count of elements                        : 14
  529. Stream size                              : 65.1 KiB (0%)
  530. Language                                 : Hindi
  531. Default                                  : No
  532. Forced                                   : No
  533. Original source medium                   : Blu-ray
  534. Text #19
  535. ID                                       : 31
  536. ID in the original source medium         : 4620 (0x120C)
  537. Format                                   : PGS
  538. Muxing mode                              : zlib
  539. Codec ID                                 : S_HDMV/PGS
  540. Codec ID/Info                            : Picture based subtitle format used on BDs/HD-DVDs
  541. Duration                                 : 1 h 25 min
  542. Bit rate                                 : 22.4 kb/s
  543. Count of elements                        : 1996
  544. Stream size                              : 13.7 MiB (0%)
  545. Language                                 : Hungarian
  546. Default                                  : No
  547. Forced                                   : No
  548. Original source medium                   : Blu-ray
  549. Text #20
  550. ID                                       : 32
  551. ID in the original source medium         : 4620 (0x120C)
  552. Format                                   : PGS
  553. Muxing mode                              : zlib
  554. Codec ID                                 : S_HDMV/PGS
  555. Codec ID/Info                            : Picture based subtitle format used on BDs/HD-DVDs
  556. Duration                                 : 1 h 22 min
  557. Bit rate                                 : 948 b/s
  558. Count of elements                        : 92
  559. Stream size                              : 576 KiB (0%)
  560. Language                                 : Hungarian
  561. Default                                  : No
  562. Forced                                   : No
  563. Original source medium                   : Blu-ray
  564. Text #21
  565. ID                                       : 33
  566. ID in the original source medium         : 4621 (0x120D)
  567. Format                                   : PGS
  568. Muxing mode                              : zlib
  569. Codec ID                                 : S_HDMV/PGS
  570. Codec ID/Info                            : Picture based subtitle format used on BDs/HD-DVDs
  571. Duration                                 : 1 h 25 min
  572. Bit rate                                 : 25.6 kb/s
  573. Count of elements                        : 2002
  574. Stream size                              : 15.7 MiB (0%)
  575. Language                                 : Icelandic
  576. Default                                  : No
  577. Forced                                   : No
  578. Original source medium                   : Blu-ray
  579. Text #22
  580. ID                                       : 34
  581. ID in the original source medium         : 4622 (0x120E)
  582. Format                                   : PGS
  583. Muxing mode                              : zlib
  584. Codec ID                                 : S_HDMV/PGS
  585. Codec ID/Info                            : Picture based subtitle format used on BDs/HD-DVDs
  586. Duration                                 : 1 h 25 min
  587. Bit rate                                 : 26.5 kb/s
  588. Count of elements                        : 2036
  589. Stream size                              : 16.3 MiB (0%)
  590. Language                                 : Indonesian
  591. Default                                  : No
  592. Forced                                   : No
  593. Original source medium                   : Blu-ray
  594. Text #23
  595. ID                                       : 35
  596. ID in the original source medium         : 4623 (0x120F)
  597. Format                                   : PGS
  598. Muxing mode                              : zlib
  599. Codec ID                                 : S_HDMV/PGS
  600. Codec ID/Info                            : Picture based subtitle format used on BDs/HD-DVDs
  601. Duration                                 : 1 h 25 min
  602. Bit rate                                 : 22.5 kb/s
  603. Count of elements                        : 1980
  604. Stream size                              : 13.8 MiB (0%)
  605. Language                                 : English
  606. Default                                  : No
  607. Forced                                   : No
  608. Original source medium                   : Blu-ray
  609. Text #24
  610. ID                                       : 36
  611. ID in the original source medium         : 4623 (0x120F)
  612. Format                                   : PGS
  613. Muxing mode                              : zlib
  614. Codec ID                                 : S_HDMV/PGS
  615. Codec ID/Info                            : Picture based subtitle format used on BDs/HD-DVDs
  616. Duration                                 : 1 h 21 min
  617. Bit rate                                 : 1 028 b/s
  618. Count of elements                        : 98
  619. Stream size                              : 612 KiB (0%)
  620. Language                                 : English
  621. Default                                  : No
  622. Forced                                   : No
  623. Original source medium                   : Blu-ray
  624. Text #25
  625. ID                                       : 37
  626. ID in the original source medium         : 4624 (0x1210)
  627. Format                                   : PGS
  628. Muxing mode                              : zlib
  629. Codec ID                                 : S_HDMV/PGS
  630. Codec ID/Info                            : Picture based subtitle format used on BDs/HD-DVDs
  631. Duration                                 : 1 h 28 min
  632. Bit rate                                 : 14.6 kb/s
  633. Count of elements                        : 2040
  634. Stream size                              : 9.16 MiB (0%)
  635. Language                                 : Korean
  636. Default                                  : No
  637. Forced                                   : No
  638. Original source medium                   : Blu-ray
  639. Text #26
  640. ID                                       : 38
  641. ID in the original source medium         : 4625 (0x1211)
  642. Format                                   : PGS
  643. Muxing mode                              : zlib
  644. Codec ID                                 : S_HDMV/PGS
  645. Codec ID/Info                            : Picture based subtitle format used on BDs/HD-DVDs
  646. Duration                                 : 1 h 28 min
  647. Bit rate                                 : 18.7 kb/s
  648. Count of elements                        : 2002
  649. Stream size                              : 11.8 MiB (0%)
  650. Language                                 : Latvian
  651. Default                                  : No
  652. Forced                                   : No
  653. Original source medium                   : Blu-ray
  654. Text #27
  655. ID                                       : 39
  656. ID in the original source medium         : 4626 (0x1212)
  657. Format                                   : PGS
  658. Muxing mode                              : zlib
  659. Codec ID                                 : S_HDMV/PGS
  660. Codec ID/Info                            : Picture based subtitle format used on BDs/HD-DVDs
  661. Duration                                 : 1 h 28 min
  662. Bit rate                                 : 21.3 kb/s
  663. Count of elements                        : 2002
  664. Stream size                              : 13.4 MiB (0%)
  665. Language                                 : Lithuanian
  666. Default                                  : No
  667. Forced                                   : No
  668. Original source medium                   : Blu-ray
  669. Text #28
  670. ID                                       : 40
  671. ID in the original source medium         : 4627 (0x1213)
  672. Format                                   : PGS
  673. Muxing mode                              : zlib
  674. Codec ID                                 : S_HDMV/PGS
  675. Codec ID/Info                            : Picture based subtitle format used on BDs/HD-DVDs
  676. Duration                                 : 1 h 25 min
  677. Bit rate                                 : 24.8 kb/s
  678. Count of elements                        : 2036
  679. Stream size                              : 15.2 MiB (0%)
  680. Language                                 : Malay
  681. Default                                  : No
  682. Forced                                   : No
  683. Original source medium                   : Blu-ray
  684. Text #29
  685. ID                                       : 41
  686. ID in the original source medium         : 4628 (0x1214)
  687. Format                                   : PGS
  688. Muxing mode                              : zlib
  689. Codec ID                                 : S_HDMV/PGS
  690. Codec ID/Info                            : Picture based subtitle format used on BDs/HD-DVDs
  691. Duration                                 : 1 h 28 min
  692. Bit rate                                 : 20.7 kb/s
  693. Count of elements                        : 2036
  694. Stream size                              : 13.0 MiB (0%)
  695. Language                                 : Chinese
  696. Default                                  : No
  697. Forced                                   : No
  698. Original source medium                   : Blu-ray
  699. Text #30
  700. ID                                       : 42
  701. ID in the original source medium         : 4629 (0x1215)
  702. Format                                   : PGS
  703. Muxing mode                              : zlib
  704. Codec ID                                 : S_HDMV/PGS
  705. Codec ID/Info                            : Picture based subtitle format used on BDs/HD-DVDs
  706. Duration                                 : 1 h 28 min
  707. Bit rate                                 : 16.2 kb/s
  708. Count of elements                        : 1960
  709. Stream size                              : 10.2 MiB (0%)
  710. Language                                 : Polish
  711. Default                                  : No
  712. Forced                                   : No
  713. Original source medium                   : Blu-ray
  714. Text #31
  715. ID                                       : 43
  716. ID in the original source medium         : 4630 (0x1216)
  717. Format                                   : PGS
  718. Muxing mode                              : zlib
  719. Codec ID                                 : S_HDMV/PGS
  720. Codec ID/Info                            : Picture based subtitle format used on BDs/HD-DVDs
  721. Duration                                 : 1 h 25 min
  722. Bit rate                                 : 24.5 kb/s
  723. Count of elements                        : 1998
  724. Stream size                              : 15.0 MiB (0%)
  725. Language                                 : Portuguese
  726. Default                                  : No
  727. Forced                                   : No
  728. Original source medium                   : Blu-ray
  729. Text #32
  730. ID                                       : 44
  731. ID in the original source medium         : 4631 (0x1217)
  732. Format                                   : PGS
  733. Muxing mode                              : zlib
  734. Codec ID                                 : S_HDMV/PGS
  735. Codec ID/Info                            : Picture based subtitle format used on BDs/HD-DVDs
  736. Duration                                 : 1 h 28 min
  737. Bit rate                                 : 21.2 kb/s
  738. Count of elements                        : 1668
  739. Stream size                              : 13.3 MiB (0%)
  740. Language                                 : Romanian
  741. Default                                  : No
  742. Forced                                   : No
  743. Original source medium                   : Blu-ray
  744. Text #33
  745. ID                                       : 45
  746. ID in the original source medium         : 4632 (0x1218)
  747. Format                                   : PGS
  748. Muxing mode                              : zlib
  749. Codec ID                                 : S_HDMV/PGS
  750. Codec ID/Info                            : Picture based subtitle format used on BDs/HD-DVDs
  751. Duration                                 : 1 h 25 min
  752. Bit rate                                 : 21.2 kb/s
  753. Count of elements                        : 2000
  754. Stream size                              : 13.0 MiB (0%)
  755. Language                                 : Serbian
  756. Default                                  : No
  757. Forced                                   : No
  758. Original source medium                   : Blu-ray
  759. Text #34
  760. ID                                       : 46
  761. ID in the original source medium         : 4633 (0x1219)
  762. Format                                   : PGS
  763. Muxing mode                              : zlib
  764. Codec ID                                 : S_HDMV/PGS
  765. Codec ID/Info                            : Picture based subtitle format used on BDs/HD-DVDs
  766. Duration                                 : 1 h 25 min
  767. Bit rate                                 : 19.0 kb/s
  768. Count of elements                        : 2000
  769. Stream size                              : 11.7 MiB (0%)
  770. Language                                 : Slovenian
  771. Default                                  : No
  772. Forced                                   : No
  773. Original source medium                   : Blu-ray
  774. Text #35
  775. ID                                       : 47
  776. ID in the original source medium         : 4634 (0x121A)
  777. Format                                   : PGS
  778. Muxing mode                              : zlib
  779. Codec ID                                 : S_HDMV/PGS
  780. Codec ID/Info                            : Picture based subtitle format used on BDs/HD-DVDs
  781. Duration                                 : 1 h 28 min
  782. Bit rate                                 : 20.8 kb/s
  783. Count of elements                        : 1996
  784. Stream size                              : 13.1 MiB (0%)
  785. Language                                 : Thai
  786. Default                                  : No
  787. Forced                                   : No
  788. Original source medium                   : Blu-ray
  789. Text #36
  790. ID                                       : 48
  791. ID in the original source medium         : 4634 (0x121A)
  792. Format                                   : PGS
  793. Muxing mode                              : zlib
  794. Codec ID                                 : S_HDMV/PGS
  795. Codec ID/Info                            : Picture based subtitle format used on BDs/HD-DVDs
  796. Duration                                 : 1 h 22 min
  797. Bit rate                                 : 1 022 b/s
  798. Count of elements                        : 106
  799. Stream size                              : 621 KiB (0%)
  800. Language                                 : Thai
  801. Default                                  : No
  802. Forced                                   : No
  803. Original source medium                   : Blu-ray
  804. Text #37
  805. ID                                       : 49
  806. ID in the original source medium         : 4635 (0x121B)
  807. Format                                   : PGS
  808. Muxing mode                              : zlib
  809. Codec ID                                 : S_HDMV/PGS
  810. Codec ID/Info                            : Picture based subtitle format used on BDs/HD-DVDs
  811. Duration                                 : 1 h 28 min
  812. Bit rate                                 : 24.2 kb/s
  813. Count of elements                        : 2000
  814. Stream size                              : 15.2 MiB (0%)
  815. Language                                 : Turkish
  816. Default                                  : No
  817. Forced                                   : No
  818. Original source medium                   : Blu-ray
  819. Text #38
  820. ID                                       : 50
  821. ID in the original source medium         : 4635 (0x121B)
  822. Format                                   : PGS
  823. Muxing mode                              : zlib
  824. Codec ID                                 : S_HDMV/PGS
  825. Codec ID/Info                            : Picture based subtitle format used on BDs/HD-DVDs
  826. Duration                                 : 1 h 22 min
  827. Bit rate                                 : 1 468 b/s
  828. Count of elements                        : 120
  829. Stream size                              : 892 KiB (0%)
  830. Language                                 : Turkish
  831. Default                                  : No
  832. Forced                                   : No
  833. Original source medium                   : Blu-ray
  834. Text #39
  835. ID                                       : 51
  836. ID in the original source medium         : 4636 (0x121C)
  837. Format                                   : PGS
  838. Muxing mode                              : zlib
  839. Codec ID                                 : S_HDMV/PGS
  840. Codec ID/Info                            : Picture based subtitle format used on BDs/HD-DVDs
  841. Duration                                 : 1 h 25 min
  842. Bit rate                                 : 21.0 kb/s
  843. Count of elements                        : 2004
  844. Stream size                              : 12.8 MiB (0%)
  845. Language                                 : Ukrainian
  846. Default                                  : No
  847. Forced                                   : No
  848. Original source medium                   : Blu-ray
  849. Text #40
  850. ID                                       : 52
  851. ID in the original source medium         : 4636 (0x121C)
  852. Format                                   : PGS
  853. Muxing mode                              : zlib
  854. Codec ID                                 : S_HDMV/PGS
  855. Codec ID/Info                            : Picture based subtitle format used on BDs/HD-DVDs
  856. Duration                                 : 1 h 22 min
  857. Bit rate                                 : 999 b/s
  858. Count of elements                        : 104
  859. Stream size                              : 608 KiB (0%)
  860. Language                                 : Ukrainian
  861. Default                                  : No
  862. Forced                                   : No
  863. Original source medium                   : Blu-ray
  864. Text #41
  865. ID                                       : 53
  866. ID in the original source medium         : 4637 (0x121D)
  867. Format                                   : PGS
  868. Muxing mode                              : zlib
  869. Codec ID                                 : S_HDMV/PGS
  870. Codec ID/Info                            : Picture based subtitle format used on BDs/HD-DVDs
  871. Duration                                 : 1 h 25 min
  872. Bit rate                                 : 24.7 kb/s
  873. Count of elements                        : 1718
  874. Stream size                              : 15.1 MiB (0%)
  875. Language                                 : Vietnamese
  876. Default                                  : No
  877. Forced                                   : No
  878. Original source medium                   : Blu-ray
  879. Menu
  880. 00:00:00.000                             : en:Chapter 01
  881. 00:04:55.670                             : en:Chapter 02
  882. 00:08:28.799                             : en:Chapter 03
  883. 00:13:49.870                             : en:Chapter 04
  884. 00:19:32.838                             : en:Chapter 05
  885. 00:22:48.492                             : en:Chapter 06
  886. 00:29:14.294                             : en:Chapter 07
  887. 00:33:08.820                             : en:Chapter 08
  888. 00:38:55.791                             : en:Chapter 09
  889. 00:43:56.050                             : en:Chapter 10
  890. 00:47:50.617                             : en:Chapter 11
  891. 00:51:27.876                             : en:Chapter 12
  892. 00:57:00.834                             : en:Chapter 13
  893. 01:03:32.892                             : en:Chapter 14
  894. 01:06:50.172                             : en:Chapter 15
  895. 01:12:26.550                             : en:Chapter 16
  896. 01:18:32.374                             : en:Chapter 17
  897. 01:23:05.981                             : en:Chapter 18
复制代码



4K321提示您 点击下方附件即可下载

至暗之时 The.Darkest.Hour.2011.1080p.BluRay.REMUX.AVC.DTS-HD.MA.5.1-FGT 21.59GB

The.Darkest.Hour.2011.1080p.BluRay.REMUX.AVC.DTS-HD.MA.5.1-FGT.torrent ( 27.63 KB )

回复

使用道具 举报

全部回复0 显示全部楼层

声明:您在社区发表的所有信息仅代表用户个人观点,与本网站立场无关,希望各位烧友理性发言,不发表违法国家法律禁止的话题。

您需要登录后才可以回帖 登录 | 立即注册

本版积分规则

联系客服 关注微信 下载APP 返回顶部 返回列表