开启左侧

[动画片] 逃亡 Flee.2021.DUBBED.1080p.BluRay.REMUX.AVC.DTS-HD.MA.5.1-FGT 21.48GB

蓝鸟 发表于 2022-6-2 21:08:48 | 显示全部楼层 |阅读模式


译  名 逃亡 / 逃不出的记忆 / 无处安心(港) / Flee
片  名 Flugt
年  代 2021
产  地 丹麦 / 瑞典 / 挪威 / 法国 / 美国 / 斯洛文尼亚 / 爱沙尼亚 / 西班牙 / 意大利 / 芬兰
类  别 动画 / 纪录片
语  言 丹麦语 / 英语 / 俄语 / 瑞典语
上映日期 2021-01-28(圣丹斯电影节) / 2021-06-17(丹麦)
豆瓣评分 8.2/10 (7229人评价)
片  长 88分钟
导  演 乔纳斯·波赫·拉斯穆森 Jonas Poher Rasmussen
编  剧 乔纳斯·波赫·拉斯穆森 Jonas Poher Rasmussen
演  员 Tormod Ringnes Tormod Ringnes
       Peter Jennings Peter Jennings
       尼古拉·科斯特-瓦尔道 Nikolaj Coster-Waldau
       里兹·阿迈德 Riz Ahmed

简  介

阿富汗裔的Amin,已在丹麦落地生根,即将与同性伴侣成婚。面对伸手可及的幸福,内心却有难解的结,童年时的苦难记忆,长大后仍挥之不去。小时候迷恋尚格云顿,但生逢乱世,家乡平静生活被战火摧毁,他随家人逃到莫斯科,再千辛万苦偷渡到哥本哈根。以动画形式纪录真人真事,导演让好友Amin倾吐隐衷,回忆颠沛流离的日子,以及遇过的贪腐警察、冷血蛇头。最后逃避不了的,是一直压在心头的秘密。圣丹斯电影节世界纪录片评审团大奖。


获奖情况 (共20项)

第94届奥斯卡金像奖 (2022)
  最佳国际影片(提名)
  最佳动画长片(提名)
  最佳纪录长片(提名)
  第73届戛纳电影节 (2020)
  动画片(提名)
  第79届金球奖 (2022)
  电影类 最佳动画长片(提名)
  第75届英国电影学院奖 (2022)
  电影奖 最佳纪录片(提名)
  电影奖 最佳动画片(提名)
  第34届欧洲电影奖 (2021)
  观众选择奖(提名)
  最佳纪录片
  最佳动画片
  第49届动画安妮奖 (2022)
  最佳独立动画长片
  最佳导演(提名)
   └──乔纳斯·波赫·拉斯穆森
  最佳编剧(提名)
   └──乔纳斯·波赫·拉斯穆森
  最佳剪辑(提名)
  第37届圣丹斯电影节 (2021)
  评审团大奖 世界电影单元纪录片
   └──乔纳斯·波赫·拉斯穆森
  第87届纽约影评人协会奖 (2021)
  最佳纪录片
  第27届美国评论家选择电影奖 (2022)
  最佳动画片(提名)
  最佳外语片(提名)
  第31届哥谭独立电影奖 (2021)
  最佳纪录片
  第56届美国国家影评人协会奖 (2022)
  最佳纪录片


影片参数
  1. Video
  2. ID                                       : 1
  3. ID in the original source medium         : 4113 (0x1011)
  4. Format                                   : AVC
  5. Format/Info                              : Advanced Video Codec
  6. Format profile                           : [email protected]
  7. Format settings                          : CABAC / 4 Ref Frames
  8. Format settings, CABAC                   : Yes
  9. Format settings, Reference frames        : 4 frames
  10. Codec ID                                 : V_MPEG4/ISO/AVC
  11. Duration                                 : 1 h 29 min
  12. Bit rate mode                            : Constant
  13. Bit rate                                 : 31.0 Mb/s
  14. Nominal bit rate                         : 35.0 Mb/s
  15. Width                                    : 1 920 pixels
  16. Height                                   : 1 080 pixels
  17. Display aspect ratio                     : 16:9
  18. Frame rate mode                          : Constant
  19. Frame rate                               : 24.000 FPS
  20. Color space                              : YUV
  21. Chroma subsampling                       : 4:2:0
  22. Bit depth                                : 8 bits
  23. Scan type                                : Progressive
  24. Bits/(Pixel*Frame)                       : 0.624
  25. Stream size                              : 19.3 GiB (90%)
  26. Language                                 : English
  27. Default                                  : No
  28. Forced                                   : No
  29. Color range                              : Limited
  30. Color primaries                          : BT.709
  31. Transfer characteristics                 : BT.709
  32. Matrix coefficients                      : BT.709
  33. Original source medium                   : Blu-ray
  34. Audio #1
  35. ID                                       : 2
  36. ID in the original source medium         : 4352 (0x1100)
  37. Format                                   : DTS XLL
  38. Format/Info                              : Digital Theater Systems
  39. Commercial name                          : DTS-HD Master Audio
  40. Codec ID                                 : A_DTS
  41. Duration                                 : 1 h 29 min
  42. Bit rate mode                            : Variable
  43. Bit rate                                 : 1 913 kb/s
  44. Channel(s)                               : 6 channels
  45. Channel layout                           : C L R Ls Rs LFE
  46. Sampling rate                            : 48.0 kHz
  47. Frame rate                               : 93.750 FPS (512 SPF)
  48. Bit depth                                : 16 bits
  49. Compression mode                         : Lossless
  50. Stream size                              : 1.19 GiB (6%)
  51. Title                                    : DTS-HD MA 5.1
  52. Language                                 : English
  53. Default                                  : Yes
  54. Forced                                   : No
  55. Original source medium                   : Blu-ray
  56. Audio #2
  57. ID                                       : 3
  58. ID in the original source medium         : 4353 (0x1101)
  59. Format                                   : PCM
  60. Format settings                          : Little / Signed
  61. Codec ID                                 : A_PCM/INT/LIT
  62. Duration                                 : 1 h 29 min
  63. Bit rate mode                            : Constant
  64. Bit rate                                 : 1 536 kb/s
  65. Channel(s)                               : 2 channels
  66. Sampling rate                            : 48.0 kHz
  67. Frame rate                               : 30.000 FPS (1600 SPF)
  68. Bit depth                                : 16 bits
  69. Stream size                              : 979 MiB (4%)
  70. Title                                    : LPCM 2.0
  71. Language                                 : English
  72. Default                                  : No
  73. Forced                                   : No
  74. Original source medium                   : Blu-ray
  75. Text #1
  76. ID                                       : 4
  77. Format                                   : UTF-8
  78. Codec ID                                 : S_TEXT/UTF8
  79. Codec ID/Info                            : UTF-8 Plain Text
  80. Duration                                 : 1 h 14 min
  81. Bit rate                                 : 15 b/s
  82. Count of elements                        : 232
  83. Stream size                              : 8.69 KiB (0%)
  84. Language                                 : English
  85. Default                                  : Yes
  86. Forced                                   : No
  87. Text #2
  88. ID                                       : 5
  89. ID in the original source medium         : 4608 (0x1200)
  90. Format                                   : PGS
  91. Muxing mode                              : zlib
  92. Codec ID                                 : S_HDMV/PGS
  93. Codec ID/Info                            : Picture based subtitle format used on BDs/HD-DVDs
  94. Duration                                 : 1 h 14 min
  95. Bit rate                                 : 8 462 b/s
  96. Count of elements                        : 466
  97. Stream size                              : 4.53 MiB (0%)
  98. Language                                 : English
  99. Default                                  : No
  100. Forced                                   : No
  101. Original source medium                   : Blu-ray
  102. Menu
  103. 00:00:00.000                             : en:Chapter 01
  104. 00:12:46.041                             : en:Chapter 02
  105. 00:21:49.500                             : en:Chapter 03
  106. 00:28:51.750                             : en:Chapter 04
  107. 00:34:20.458                             : en:Chapter 05
  108. 00:39:15.208                             : en:Chapter 06
  109. 00:48:39.416                             : en:Chapter 07
  110. 00:57:39.500                             : en:Chapter 08
  111. 01:07:29.041                             : en:Chapter 09
  112. 01:17:03.291                             : en:Chapter 10
  113. 01:19:35.708                             : en:Chapter 11
  114. 01:24:38.583                             : en:Chapter 12
复制代码

逃亡 Flee.2021.DUBBED.1080p.BluRay.REMUX.AVC.DTS-HD.MA.5.1-FGT 21.48GB

逃亡 Flee.2021.DUBBED.1080p.BluRay.REMUX.AVC.DTS-HD.MA.5.1-FGT 21.48GB



4K321提示您 点击下方附件即可下载

逃亡 Flee.2021.DUBBED.1080p.BluRay.REMUX.AVC.DTS-HD.MA.5.1-FGT 21.48GB

Flee.2021.DUBBED.1080p.BluRay.REMUX.AVC.DTS-HD.MA.5.1-FGT.torrent ( 27.49 KB )

回复

使用道具 举报

全部回复0 显示全部楼层

声明:您在社区发表的所有信息仅代表用户个人观点,与本网站立场无关,希望各位烧友理性发言,不发表违法国家法律禁止的话题。

您需要登录后才可以回帖 登录 | 立即注册

本版积分规则

联系客服 关注微信 下载APP 返回顶部 返回列表