开启左侧

[动作片] 铁血战士 Predator.1987.1080p.BluRay.REMUX.AVC.DTS-HD.MA.5.1-FGT 30.02GB

蓝鸟 发表于 2022-6-2 21:05:34 | 显示全部楼层 |阅读模式

铁血战士 Predator.1987.1080p.BluRay.REMUX.AVC.DTS-HD.MA.5.1-FGT 30.02GB

铁血战士 Predator.1987.1080p.BluRay.REMUX.AVC.DTS-HD.MA.5.1-FGT 30.02GB


译  名 铁血战士 / 终极战士(台) / 掠夺者 / 猎食者
片  名 Predator
年  代 1987
产  地 美国
类  别 动作 / 科幻 / 惊悚 / 冒险
语  言 英语 / 西班牙语
上映日期 1987-06-12
豆瓣评分 7.7/10 (34377人评价)
片  长 107 分钟
导  演 约翰·麦克蒂尔南 John McTiernan
编  剧 吉姆·托马斯 Jim Thomas
       约翰·托马斯 John Thomas
       吉姆·托马斯 Jim Thomas
演  员 阿诺·施瓦辛格 Arnold Schwarzenegger
       卡尔·韦瑟斯 Carl Weathers
       艾尔皮迪娅·卡里洛 Elpidia Carrillo
       比尔·杜克 Bill Duke
       杰西·温图拉 Jesse Ventura
       索尼·兰哈姆 Sonny Landham
       理查德·切夫斯 Richard Chaves
       R·G·阿姆斯特朗 R.G. Armstrong
       沙恩·布莱克 Shane Black
       凯文·彼得·豪尔 Kevin Peter Hall
       史蒂夫·博伊姆 Steve Boyum
       弗兰科·哥伦布 Franco Columbu
       彼特·库伦 Peter Cullen
       Henry Kingi Henry Kingi
       史文-欧尔·托尔森 Sven-Ole Thorsen
       William H. Burton William H. Burton
       吉姆·托马斯 Jim Thomas
       约翰·戴维斯 John Davis
       约翰·瓦隆 John Vallone
       乔·西尔沃 Joel Silver
       劳伦斯·戈登 Lawrence Gordon
       亚伦·史维斯查 Alan Silvestri
       唐纳德·麦卡尔平 Donald McAlpine
       约翰·F·林克 John F. Link
       马克·海尔弗里奇 Mark Helfrich
       杰基?伯奇 Jackie Burch
       约翰·瓦隆 John Vallone
       Enrique Estévez Enrique Estévez
       玛丽莲·万斯 Marilyn Vance
       James R. Scribner James R. Scribner
       杰夫·道恩 Jeff Dawn
       John Rizzo John Rizzo
       斯坦·温斯顿 Stan Winston
       Scott H. Eddo Scott H. Eddo
       Adam Hill Adam Hill
       克雷格·R·巴克斯利 Craig R. Baxley
       David Satin David Satin
       保罗·D·约翰逊 Paul D. Johnson
       Keith Shartle Keith Shartle
       Russell Calabrese Russell Calabrese
       乔尔·海内克 Joel Hynek
       理查德·格林伯格 Richard Greenberg
       罗伯特·M·格林伯格 Robert M. Greenberg
       Laurel Klick Laurel Klick
       斯图尔特·罗伯特森 Stuart Robertson
       Robert Scifo Robert Scifo
       迈克·史密斯森 Mike Smithson

简  介

美军一名飞行员在南美洲的原始森林失踪了,那里盘踞着不怎么友好的当地游击队。美军特种兵少校达奇(阿诺?施瓦辛格 Arnold Schwarzenegger)率领部下亲自前往搜救。他们在森林里很快就发现了失踪的飞行员的尸体,死状恐怖。大家都认为那是当地的游击队干的,愤怒的队 员开始寻找当地游击队的基地,要为同伴报仇。                                    
                                然而当他们发现当地游击队的营地时,发现当地人也被一种恐怖气氛所笼罩着。随后,队员们相继被袭击身亡,但每次都没发现敌人的半个影子。对方就像凭空隐形了一样。孤身一人的达奇决心凭自己的力量面对这股神秘恐怖的力量……


获奖情况 (共1项)

第60届奥斯卡金像奖 (1988)
  最佳视觉效果(提名)


影片参数
  1. Video
  2. ID                                       : 1
  3. ID in the original source medium         : 4113 (0x1011)
  4. Format                                   : AVC
  5. Format/Info                              : Advanced Video Codec
  6. Format profile                           : [email protected]
  7. Format settings                          : CABAC / 4 Ref Frames
  8. Format settings, CABAC                   : Yes
  9. Format settings, Reference frames        : 4 frames
  10. Codec ID                                 : V_MPEG4/ISO/AVC
  11. Duration                                 : 1 h 46 min
  12. Bit rate mode                            : Variable
  13. Bit rate                                 : 32.5 Mb/s
  14. Maximum bit rate                         : 34.0 Mb/s
  15. Width                                    : 1 920 pixels
  16. Height                                   : 1 080 pixels
  17. Display aspect ratio                     : 16:9
  18. Frame rate mode                          : Constant
  19. Frame rate                               : 23.976 (24000/1001/189150) FPS
  20. Color space                              : YUV
  21. Chroma subsampling                       : 4:2:0
  22. Bit depth                                : 8 bits
  23. Scan type                                : Progressive
  24. Bits/(Pixel*Frame)                       : 0.654
  25. Stream size                              : 24.2 GiB (81%)
  26. Language                                 : English
  27. Default                                  : No
  28. Forced                                   : No
  29. Color range                              : Limited
  30. Color primaries                          : BT.709
  31. Transfer characteristics                 : BT.709
  32. Matrix coefficients                      : BT.709
  33. Original source medium                   : Blu-ray
  34. Audio #1
  35. ID                                       : 2
  36. ID in the original source medium         : 4352 (0x1100)
  37. Format                                   : DTS XLL
  38. Format/Info                              : Digital Theater Systems
  39. Commercial name                          : DTS-HD Master Audio
  40. Codec ID                                 : A_DTS
  41. Duration                                 : 1 h 46 min
  42. Bit rate mode                            : Variable
  43. Bit rate                                 : 4 530 kb/s
  44. Channel(s)                               : 6 channels
  45. Channel layout                           : C L R Ls Rs LFE
  46. Sampling rate                            : 48.0 kHz
  47. Frame rate                               : 93.750 FPS (512 SPF)
  48. Bit depth                                : 24 bits
  49. Compression mode                         : Lossless
  50. Stream size                              : 3.37 GiB (11%)
  51. Title                                    : DTS-HD MA 5.1
  52. Language                                 : English
  53. Default                                  : Yes
  54. Forced                                   : No
  55. Original source medium                   : Blu-ray
  56. Audio #2
  57. ID                                       : 3
  58. ID in the original source medium         : 4353 (0x1101)
  59. Format                                   : DTS
  60. Format/Info                              : Digital Theater Systems
  61. Codec ID                                 : A_DTS
  62. Duration                                 : 1 h 46 min
  63. Bit rate mode                            : Constant
  64. Bit rate                                 : 768 kb/s
  65. Channel(s)                               : 6 channels
  66. Channel layout                           : C L R Ls Rs LFE
  67. Sampling rate                            : 48.0 kHz
  68. Frame rate                               : 93.750 FPS (512 SPF)
  69. Bit depth                                : 24 bits
  70. Compression mode                         : Lossy
  71. Stream size                              : 586 MiB (2%)
  72. Title                                    : DTS 5.1
  73. Language                                 : Japanese
  74. Default                                  : No
  75. Forced                                   : No
  76. Original source medium                   : Blu-ray
  77. Audio #3
  78. ID                                       : 4
  79. ID in the original source medium         : 4354 (0x1102)
  80. Format                                   : DTS
  81. Format/Info                              : Digital Theater Systems
  82. Codec ID                                 : A_DTS
  83. Duration                                 : 1 h 46 min
  84. Bit rate mode                            : Constant
  85. Bit rate                                 : 768 kb/s
  86. Channel(s)                               : 6 channels
  87. Channel layout                           : C L R Ls Rs LFE
  88. Sampling rate                            : 48.0 kHz
  89. Frame rate                               : 93.750 FPS (512 SPF)
  90. Bit depth                                : 24 bits
  91. Compression mode                         : Lossy
  92. Stream size                              : 586 MiB (2%)
  93. Title                                    : DTS 5.1
  94. Language                                 : Russian
  95. Default                                  : No
  96. Forced                                   : No
  97. Original source medium                   : Blu-ray
  98. Audio #4
  99. ID                                       : 5
  100. ID in the original source medium         : 4355 (0x1103)
  101. Format                                   : AC-3
  102. Format/Info                              : Audio Coding 3
  103. Commercial name                          : Dolby Digital
  104. Codec ID                                 : A_AC3
  105. Duration                                 : 1 h 46 min
  106. Bit rate mode                            : Constant
  107. Bit rate                                 : 224 kb/s
  108. Channel(s)                               : 2 channels
  109. Channel layout                           : L R
  110. Sampling rate                            : 48.0 kHz
  111. Frame rate                               : 31.250 FPS (1536 SPF)
  112. Compression mode                         : Lossy
  113. Stream size                              : 171 MiB (0%)
  114. Title                                    : DD 2.0
  115. Language                                 : Hungarian
  116. Service kind                             : Complete Main
  117. Default                                  : No
  118. Forced                                   : No
  119. Original source medium                   : Blu-ray
  120. Audio #5
  121. ID                                       : 6
  122. ID in the original source medium         : 4356 (0x1104)
  123. Format                                   : AC-3
  124. Format/Info                              : Audio Coding 3
  125. Commercial name                          : Dolby Digital
  126. Codec ID                                 : A_AC3
  127. Duration                                 : 1 h 46 min
  128. Bit rate mode                            : Constant
  129. Bit rate                                 : 448 kb/s
  130. Channel(s)                               : 6 channels
  131. Channel layout                           : L R C LFE Ls Rs
  132. Sampling rate                            : 48.0 kHz
  133. Frame rate                               : 31.250 FPS (1536 SPF)
  134. Compression mode                         : Lossy
  135. Stream size                              : 342 MiB (1%)
  136. Title                                    : DD 5.1
  137. Language                                 : Polish
  138. Service kind                             : Complete Main
  139. Default                                  : No
  140. Forced                                   : No
  141. Original source medium                   : Blu-ray
  142. Audio #6
  143. ID                                       : 7
  144. ID in the original source medium         : 4357 (0x1105)
  145. Format                                   : AC-3
  146. Format/Info                              : Audio Coding 3
  147. Commercial name                          : Dolby Digital
  148. Codec ID                                 : A_AC3
  149. Duration                                 : 1 h 46 min
  150. Bit rate mode                            : Constant
  151. Bit rate                                 : 448 kb/s
  152. Channel(s)                               : 6 channels
  153. Channel layout                           : L R C LFE Ls Rs
  154. Sampling rate                            : 48.0 kHz
  155. Frame rate                               : 31.250 FPS (1536 SPF)
  156. Compression mode                         : Lossy
  157. Stream size                              : 342 MiB (1%)
  158. Title                                    : DD 5.1
  159. Language                                 : Thai
  160. Service kind                             : Complete Main
  161. Default                                  : No
  162. Forced                                   : No
  163. Original source medium                   : Blu-ray
  164. Audio #7
  165. ID                                       : 8
  166. ID in the original source medium         : 4358 (0x1106)
  167. Format                                   : AC-3
  168. Format/Info                              : Audio Coding 3
  169. Commercial name                          : Dolby Digital
  170. Codec ID                                 : A_AC3
  171. Duration                                 : 1 h 46 min
  172. Bit rate mode                            : Constant
  173. Bit rate                                 : 224 kb/s
  174. Channel(s)                               : 2 channels
  175. Channel layout                           : L R
  176. Sampling rate                            : 48.0 kHz
  177. Frame rate                               : 31.250 FPS (1536 SPF)
  178. Compression mode                         : Lossy
  179. Stream size                              : 171 MiB (0%)
  180. Title                                    : DD 2.0
  181. Language                                 : Turkish
  182. Service kind                             : Complete Main
  183. Default                                  : No
  184. Forced                                   : No
  185. Original source medium                   : Blu-ray
  186. Audio #8
  187. ID                                       : 9
  188. ID in the original source medium         : 4359 (0x1107)
  189. Format                                   : AC-3
  190. Format/Info                              : Audio Coding 3
  191. Commercial name                          : Dolby Digital
  192. Codec ID                                 : A_AC3
  193. Duration                                 : 1 h 46 min
  194. Bit rate mode                            : Constant
  195. Bit rate                                 : 224 kb/s
  196. Channel(s)                               : 2 channels
  197. Channel layout                           : L R
  198. Sampling rate                            : 48.0 kHz
  199. Frame rate                               : 31.250 FPS (1536 SPF)
  200. Compression mode                         : Lossy
  201. Stream size                              : 171 MiB (0%)
  202. Title                                    : DD 2.0
  203. Language                                 : English
  204. Service kind                             : Complete Main
  205. Default                                  : No
  206. Forced                                   : No
  207. Original source medium                   : Blu-ray
  208. Text #1
  209. ID                                       : 10
  210. Format                                   : UTF-8
  211. Codec ID                                 : S_TEXT/UTF8
  212. Codec ID/Info                            : UTF-8 Plain Text
  213. Duration                                 : 1 h 37 min
  214. Bit rate                                 : 24 b/s
  215. Count of elements                        : 501
  216. Stream size                              : 17.2 KiB (0%)
  217. Language                                 : English
  218. Default                                  : Yes
  219. Forced                                   : No
  220. Text #2
  221. ID                                       : 11
  222. Format                                   : UTF-8
  223. Codec ID                                 : S_TEXT/UTF8
  224. Codec ID/Info                            : UTF-8 Plain Text
  225. Duration                                 : 1 h 37 min
  226. Bit rate                                 : 25 b/s
  227. Count of elements                        : 564
  228. Stream size                              : 18.2 KiB (0%)
  229. Title                                    : SDH
  230. Language                                 : English
  231. Default                                  : No
  232. Forced                                   : No
  233. Text #3
  234. ID                                       : 12
  235. ID in the original source medium         : 4608 (0x1200)
  236. Format                                   : PGS
  237. Muxing mode                              : zlib
  238. Codec ID                                 : S_HDMV/PGS
  239. Codec ID/Info                            : Picture based subtitle format used on BDs/HD-DVDs
  240. Duration                                 : 1 h 37 min
  241. Bit rate                                 : 13.7 kb/s
  242. Count of elements                        : 1132
  243. Stream size                              : 9.59 MiB (0%)
  244. Language                                 : English
  245. Default                                  : No
  246. Forced                                   : No
  247. Original source medium                   : Blu-ray
  248. Text #4
  249. ID                                       : 13
  250. ID in the original source medium         : 4609 (0x1201)
  251. Format                                   : PGS
  252. Muxing mode                              : zlib
  253. Codec ID                                 : S_HDMV/PGS
  254. Codec ID/Info                            : Picture based subtitle format used on BDs/HD-DVDs
  255. Duration                                 : 1 h 35 min
  256. Bit rate                                 : 7 605 b/s
  257. Count of elements                        : 842
  258. Stream size                              : 5.21 MiB (0%)
  259. Language                                 : Japanese
  260. Default                                  : No
  261. Forced                                   : No
  262. Original source medium                   : Blu-ray
  263. Text #5
  264. ID                                       : 14
  265. ID in the original source medium         : 4610 (0x1202)
  266. Format                                   : PGS
  267. Muxing mode                              : zlib
  268. Codec ID                                 : S_HDMV/PGS
  269. Codec ID/Info                            : Picture based subtitle format used on BDs/HD-DVDs
  270. Duration                                 : 1 h 45 min
  271. Bit rate                                 : 10.5 kb/s
  272. Count of elements                        : 832
  273. Stream size                              : 7.93 MiB (0%)
  274. Language                                 : Russian
  275. Default                                  : No
  276. Forced                                   : No
  277. Original source medium                   : Blu-ray
  278. Text #6
  279. ID                                       : 15
  280. ID in the original source medium         : 4611 (0x1203)
  281. Format                                   : PGS
  282. Muxing mode                              : zlib
  283. Codec ID                                 : S_HDMV/PGS
  284. Codec ID/Info                            : Picture based subtitle format used on BDs/HD-DVDs
  285. Duration                                 : 1 h 40 min
  286. Bit rate                                 : 9 962 b/s
  287. Count of elements                        : 742
  288. Stream size                              : 7.17 MiB (0%)
  289. Language                                 : Estonian
  290. Default                                  : No
  291. Forced                                   : No
  292. Original source medium                   : Blu-ray
  293. Text #7
  294. ID                                       : 16
  295. ID in the original source medium         : 4612 (0x1204)
  296. Format                                   : PGS
  297. Muxing mode                              : zlib
  298. Codec ID                                 : S_HDMV/PGS
  299. Codec ID/Info                            : Picture based subtitle format used on BDs/HD-DVDs
  300. Duration                                 : 1 h 45 min
  301. Bit rate                                 : 9 236 b/s
  302. Count of elements                        : 734
  303. Stream size                              : 6.99 MiB (0%)
  304. Language                                 : Latvian
  305. Default                                  : No
  306. Forced                                   : No
  307. Original source medium                   : Blu-ray
  308. Text #8
  309. ID                                       : 17
  310. ID in the original source medium         : 4613 (0x1205)
  311. Format                                   : PGS
  312. Muxing mode                              : zlib
  313. Codec ID                                 : S_HDMV/PGS
  314. Codec ID/Info                            : Picture based subtitle format used on BDs/HD-DVDs
  315. Duration                                 : 1 h 45 min
  316. Bit rate                                 : 9 280 b/s
  317. Count of elements                        : 734
  318. Stream size                              : 7.02 MiB (0%)
  319. Language                                 : Lithuanian
  320. Default                                  : No
  321. Forced                                   : No
  322. Original source medium                   : Blu-ray
  323. Text #9
  324. ID                                       : 18
  325. ID in the original source medium         : 4614 (0x1206)
  326. Format                                   : PGS
  327. Muxing mode                              : zlib
  328. Codec ID                                 : S_HDMV/PGS
  329. Codec ID/Info                            : Picture based subtitle format used on BDs/HD-DVDs
  330. Duration                                 : 1 h 40 min
  331. Bit rate                                 : 9 527 b/s
  332. Count of elements                        : 672
  333. Stream size                              : 6.85 MiB (0%)
  334. Language                                 : Bulgarian
  335. Default                                  : No
  336. Forced                                   : No
  337. Original source medium                   : Blu-ray
  338. Text #10
  339. ID                                       : 19
  340. ID in the original source medium         : 4615 (0x1207)
  341. Format                                   : PGS
  342. Muxing mode                              : zlib
  343. Codec ID                                 : S_HDMV/PGS
  344. Codec ID/Info                            : Picture based subtitle format used on BDs/HD-DVDs
  345. Duration                                 : 1 h 37 min
  346. Bit rate                                 : 11.4 kb/s
  347. Count of elements                        : 866
  348. Stream size                              : 7.91 MiB (0%)
  349. Language                                 : Croatian
  350. Default                                  : No
  351. Forced                                   : No
  352. Original source medium                   : Blu-ray
  353. Text #11
  354. ID                                       : 20
  355. ID in the original source medium         : 4616 (0x1208)
  356. Format                                   : PGS
  357. Muxing mode                              : zlib
  358. Codec ID                                 : S_HDMV/PGS
  359. Codec ID/Info                            : Picture based subtitle format used on BDs/HD-DVDs
  360. Duration                                 : 1 h 42 min
  361. Bit rate                                 : 12.2 kb/s
  362. Count of elements                        : 990
  363. Stream size                              : 8.91 MiB (0%)
  364. Language                                 : Greek
  365. Default                                  : No
  366. Forced                                   : No
  367. Original source medium                   : Blu-ray
  368. Text #12
  369. ID                                       : 21
  370. ID in the original source medium         : 4617 (0x1209)
  371. Format                                   : PGS
  372. Muxing mode                              : zlib
  373. Codec ID                                 : S_HDMV/PGS
  374. Codec ID/Info                            : Picture based subtitle format used on BDs/HD-DVDs
  375. Duration                                 : 1 h 37 min
  376. Bit rate                                 : 11.2 kb/s
  377. Count of elements                        : 1047
  378. Stream size                              : 7.82 MiB (0%)
  379. Language                                 : Chinese
  380. Default                                  : No
  381. Forced                                   : No
  382. Original source medium                   : Blu-ray
  383. Text #13
  384. ID                                       : 22
  385. ID in the original source medium         : 4618 (0x120A)
  386. Format                                   : PGS
  387. Muxing mode                              : zlib
  388. Codec ID                                 : S_HDMV/PGS
  389. Codec ID/Info                            : Picture based subtitle format used on BDs/HD-DVDs
  390. Duration                                 : 1 h 42 min
  391. Bit rate                                 : 11.7 kb/s
  392. Count of elements                        : 896
  393. Stream size                              : 8.55 MiB (0%)
  394. Language                                 : Hungarian
  395. Default                                  : No
  396. Forced                                   : No
  397. Original source medium                   : Blu-ray
  398. Text #14
  399. ID                                       : 23
  400. ID in the original source medium         : 4619 (0x120B)
  401. Format                                   : PGS
  402. Muxing mode                              : zlib
  403. Codec ID                                 : S_HDMV/PGS
  404. Codec ID/Info                            : Picture based subtitle format used on BDs/HD-DVDs
  405. Duration                                 : 1 h 42 min
  406. Bit rate                                 : 11.9 kb/s
  407. Count of elements                        : 894
  408. Stream size                              : 8.76 MiB (0%)
  409. Language                                 : Icelandic
  410. Default                                  : No
  411. Forced                                   : No
  412. Original source medium                   : Blu-ray
  413. Text #15
  414. ID                                       : 24
  415. ID in the original source medium         : 4620 (0x120C)
  416. Format                                   : PGS
  417. Muxing mode                              : zlib
  418. Codec ID                                 : S_HDMV/PGS
  419. Codec ID/Info                            : Picture based subtitle format used on BDs/HD-DVDs
  420. Duration                                 : 1 h 37 min
  421. Bit rate                                 : 9 413 b/s
  422. Count of elements                        : 910
  423. Stream size                              : 6.56 MiB (0%)
  424. Language                                 : Hebrew
  425. Default                                  : No
  426. Forced                                   : No
  427. Original source medium                   : Blu-ray
  428. Text #16
  429. ID                                       : 25
  430. ID in the original source medium         : 4621 (0x120D)
  431. Format                                   : PGS
  432. Muxing mode                              : zlib
  433. Codec ID                                 : S_HDMV/PGS
  434. Codec ID/Info                            : Picture based subtitle format used on BDs/HD-DVDs
  435. Duration                                 : 1 h 40 min
  436. Bit rate                                 : 8 085 b/s
  437. Count of elements                        : 780
  438. Stream size                              : 5.82 MiB (0%)
  439. Language                                 : Korean
  440. Default                                  : No
  441. Forced                                   : No
  442. Original source medium                   : Blu-ray
  443. Text #17
  444. ID                                       : 26
  445. ID in the original source medium         : 4622 (0x120E)
  446. Format                                   : PGS
  447. Muxing mode                              : zlib
  448. Codec ID                                 : S_HDMV/PGS
  449. Codec ID/Info                            : Picture based subtitle format used on BDs/HD-DVDs
  450. Duration                                 : 1 h 37 min
  451. Bit rate                                 : 12.0 kb/s
  452. Count of elements                        : 886
  453. Stream size                              : 8.34 MiB (0%)
  454. Language                                 : Polish
  455. Default                                  : No
  456. Forced                                   : No
  457. Original source medium                   : Blu-ray
  458. Text #18
  459. ID                                       : 27
  460. ID in the original source medium         : 4623 (0x120F)
  461. Format                                   : PGS
  462. Muxing mode                              : zlib
  463. Codec ID                                 : S_HDMV/PGS
  464. Codec ID/Info                            : Picture based subtitle format used on BDs/HD-DVDs
  465. Duration                                 : 1 h 37 min
  466. Bit rate                                 : 11.8 kb/s
  467. Count of elements                        : 896
  468. Stream size                              : 8.25 MiB (0%)
  469. Language                                 : Portuguese
  470. Default                                  : No
  471. Forced                                   : No
  472. Original source medium                   : Blu-ray
  473. Text #19
  474. ID                                       : 28
  475. ID in the original source medium         : 4624 (0x1210)
  476. Format                                   : PGS
  477. Muxing mode                              : zlib
  478. Codec ID                                 : S_HDMV/PGS
  479. Codec ID/Info                            : Picture based subtitle format used on BDs/HD-DVDs
  480. Duration                                 : 1 h 42 min
  481. Bit rate                                 : 11.1 kb/s
  482. Count of elements                        : 942
  483. Stream size                              : 8.12 MiB (0%)
  484. Language                                 : Romanian
  485. Default                                  : No
  486. Forced                                   : No
  487. Original source medium                   : Blu-ray
  488. Text #20
  489. ID                                       : 29
  490. ID in the original source medium         : 4625 (0x1211)
  491. Format                                   : PGS
  492. Muxing mode                              : zlib
  493. Codec ID                                 : S_HDMV/PGS
  494. Codec ID/Info                            : Picture based subtitle format used on BDs/HD-DVDs
  495. Duration                                 : 1 h 42 min
  496. Bit rate                                 : 9 387 b/s
  497. Count of elements                        : 822
  498. Stream size                              : 6.89 MiB (0%)
  499. Language                                 : English
  500. Default                                  : No
  501. Forced                                   : No
  502. Original source medium                   : Blu-ray
  503. Text #21
  504. ID                                       : 30
  505. ID in the original source medium         : 4626 (0x1212)
  506. Format                                   : PGS
  507. Muxing mode                              : zlib
  508. Codec ID                                 : S_HDMV/PGS
  509. Codec ID/Info                            : Picture based subtitle format used on BDs/HD-DVDs
  510. Duration                                 : 1 h 40 min
  511. Bit rate                                 : 13.7 kb/s
  512. Count of elements                        : 942
  513. Stream size                              : 9.87 MiB (0%)
  514. Language                                 : Chinese
  515. Default                                  : No
  516. Forced                                   : No
  517. Original source medium                   : Blu-ray
  518. Text #22
  519. ID                                       : 31
  520. ID in the original source medium         : 4627 (0x1213)
  521. Format                                   : PGS
  522. Muxing mode                              : zlib
  523. Codec ID                                 : S_HDMV/PGS
  524. Codec ID/Info                            : Picture based subtitle format used on BDs/HD-DVDs
  525. Duration                                 : 1 h 37 min
  526. Bit rate                                 : 10.4 kb/s
  527. Count of elements                        : 882
  528. Stream size                              : 7.21 MiB (0%)
  529. Language                                 : Thai
  530. Default                                  : No
  531. Forced                                   : No
  532. Original source medium                   : Blu-ray
  533. Text #23
  534. ID                                       : 32
  535. ID in the original source medium         : 4628 (0x1214)
  536. Format                                   : PGS
  537. Muxing mode                              : zlib
  538. Codec ID                                 : S_HDMV/PGS
  539. Codec ID/Info                            : Picture based subtitle format used on BDs/HD-DVDs
  540. Duration                                 : 1 h 37 min
  541. Bit rate                                 : 12.5 kb/s
  542. Count of elements                        : 883
  543. Stream size                              : 8.67 MiB (0%)
  544. Language                                 : Turkish
  545. Default                                  : No
  546. Forced                                   : No
  547. Original source medium                   : Blu-ray
  548. Text #24
  549. ID                                       : 33
  550. ID in the original source medium         : 4629 (0x1215)
  551. Format                                   : PGS
  552. Muxing mode                              : zlib
  553. Codec ID                                 : S_HDMV/PGS
  554. Codec ID/Info                            : Picture based subtitle format used on BDs/HD-DVDs
  555. Duration                                 : 48 min 32 s
  556. Bit rate                                 : 884 b/s
  557. Count of elements                        : 46
  558. Stream size                              : 314 KiB (0%)
  559. Language                                 : Japanese
  560. Default                                  : No
  561. Forced                                   : No
  562. Original source medium                   : Blu-ray
  563. Text #25
  564. ID                                       : 34
  565. ID in the original source medium         : 4631 (0x1217)
  566. Format                                   : PGS
  567. Muxing mode                              : zlib
  568. Codec ID                                 : S_HDMV/PGS
  569. Codec ID/Info                            : Picture based subtitle format used on BDs/HD-DVDs
  570. Duration                                 : 1 h 45 min
  571. Bit rate                                 : 38.9 kb/s
  572. Count of elements                        : 2324
  573. Stream size                              : 29.2 MiB (0%)
  574. Language                                 : Japanese
  575. Default                                  : No
  576. Forced                                   : No
  577. Original source medium                   : Blu-ray
  578. Text #26
  579. ID                                       : 35
  580. ID in the original source medium         : 4632 (0x1218)
  581. Format                                   : PGS
  582. Muxing mode                              : zlib
  583. Codec ID                                 : S_HDMV/PGS
  584. Codec ID/Info                            : Picture based subtitle format used on BDs/HD-DVDs
  585. Duration                                 : 1 h 45 min
  586. Bit rate                                 : 56.0 kb/s
  587. Count of elements                        : 2708
  588. Stream size                              : 42.2 MiB (0%)
  589. Language                                 : English
  590. Default                                  : No
  591. Forced                                   : No
  592. Original source medium                   : Blu-ray
  593. Menu
  594. 00:00:00.000                             : en:Chapter 01
  595. 00:04:04.285                             : en:Chapter 02
  596. 00:06:29.639                             : en:Chapter 03
  597. 00:10:32.465                             : en:Chapter 04
  598. 00:18:21.183                             : en:Chapter 05
  599. 00:20:21.553                             : en:Chapter 06
  600. 00:27:52.337                             : en:Chapter 07
  601. 00:31:04.279                             : en:Chapter 08
  602. 00:34:53.716                             : en:Chapter 09
  603. 00:37:49.600                             : en:Chapter 10
  604. 00:41:00.833                             : en:Chapter 11
  605. 00:46:33.373                             : en:Chapter 12
  606. 00:53:08.685                             : en:Chapter 13
  607. 01:01:37.402                             : en:Chapter 14
  608. 01:04:08.761                             : en:Chapter 15
  609. 01:08:09.919                             : en:Chapter 16
  610. 01:14:10.362                             : en:Chapter 17
  611. 01:15:50.212                             : en:Chapter 18
  612. 01:18:27.369                             : en:Chapter 19
  613. 01:20:55.809                             : en:Chapter 20
  614. 01:25:09.270                             : en:Chapter 21
  615. 01:34:31.832                             : en:Chapter 22
  616. 01:35:49.118                             : en:Chapter 23
  617. 01:39:58.659                             : en:Chapter 24
  618. 01:42:56.170                             : en:Chapter 25
复制代码



4K321提示您 点击下方附件即可下载

铁血战士 Predator.1987.1080p.BluRay.REMUX.AVC.DTS-HD.MA.5.1-FGT 30.02GB

Predator.1987.1080p.BluRay.REMUX.AVC.DTS-HD.MA.5.1-FGT.torrent ( 38.16 KB )

回复

使用道具 举报

全部回复0 显示全部楼层

声明:您在社区发表的所有信息仅代表用户个人观点,与本网站立场无关,希望各位烧友理性发言,不发表违法国家法律禁止的话题。

您需要登录后才可以回帖 登录 | 立即注册

本版积分规则

联系客服 关注微信 下载APP 返回顶部 返回列表