开启左侧

[动作片] 铁血战士 The.Predator.2018.1080p.BluRay.REMUX.AVC.DTS-HD.MA.TrueHD.7.1.Atmos-FGT 32.44GB

蓝鸟 发表于 2022-6-2 21:03:48 | 显示全部楼层 |阅读模式

铁血战士 The.Predator.2018.1080p.BluRay.REMUX.AVC.DTS-HD.MA.TrueHD.7.1.Atmos-FGT 32.44GB

铁血战士 The.Predator.2018.1080p.BluRay.REMUX.AVC.DTS-HD.MA.TrueHD.7.1.Atmos-FGT 32.44GB


译  名 铁血战士 / 铁血战士新续集 / 终极战士:掠夺者(台) / 铁血战士:血兽进化(港) / 铁血战士4 / Predator 4
片  名 The Predator
年  代 2018
产  地 美国 / 加拿大
类  别 动作 / 科幻 / 惊悚 / 冒险
语  言 英语 / 西班牙语
上映日期 2018-10-26(中国大陆) / 2018-09-07(多伦多电影节) / 2018-09-14(美国)
豆瓣评分 4.9/10 (49580人评价)
片  长 107分钟
导  演 沙恩·布莱克 Shane Black
编  剧 弗莱德·戴克尔 Fred Dekker
       沙恩·布莱克 Shane Black
       吉姆·托马斯 Jim Thomas
       约翰·托马斯 John Thomas
演  员 波伊德·霍布鲁克 Boyd Holbrook
       崔凡特·罗兹 Trevante Rhodes
       雅各布·特伦布莱 Jacob Tremblay
       科甘-迈克尔·凯 Keegan-Michael Key
       奥立薇娅·玛恩 Olivia Munn
       斯特林·K·布朗 Sterling K. Brown
       托马斯·简 Thomas Jane
       阿尔菲·艾伦 Alfie Allen
       奥古斯托·阿吉莱拉 Augusto Aguilera
       杰克·布塞 Jake Busey
       伊冯娜·斯特拉霍夫斯基 Yvonne Strahovski
       布赖恩·A·普林斯 Brian A. Prince
       麦克·多普德 Mike Dopud
       尼尔迈特 Niall Matter
       加里·切克 Gary Chalk
       艾米·阿内克 Emy Aneke
       弗雷泽·艾奇逊 Fraser Aitcheson
       简·波斯 Jan Bos
       洛奇林·莫罗 Lochlyn Munro
       叶芳华 Fran?oise Yip
       里斯·威廉姆斯 Rhys Williams
       萨奇·布洛克勒班克 Sage Brocklebank
       肖恩·O.罗伯茨 Sean O. Roberts
       柯林·科里根 Colin Corrigan
       帕特里克·萨邦圭 Patrick Sabongui
       弗雷泽·科比特 Fraser Corbett
       阿隆·克拉文 Aaron Craven
       安德鲁·詹金斯 Andrew Jenkins
       爱德华·詹姆斯·奥莫斯 Edward James Olmos
       杰·哈科特 Jay Hector
       史蒂夫·怀尔德 Steve Wilder
       约翰·戴维斯 John Davis
       亨利·杰克曼 Henry Jackman
       拉瑞·方 Larry Fong
       布里奇特·霍夫曼 Bridget Hoffman
       菲利普沃尔夫 Philipp Wolf

简  介

一艘宇宙飞船坠落地球,正在执行军事任务的狙击手奎因·麦肯纳(波伊德·霍布鲁克 饰演)恰好遭遇外星人并发生激战,侥幸逃脱的他捡到了外星人的装备并寄回了家想再做他用。传说这种被称为铁血战士的外星人曾数次光临地球,使用各种残忍的手段对人类进行猎杀游戏。而这一次,奎因的儿子罗里 收到包裹后意外触发机关,引来了更强大的终极铁血战士降临地球。而想要阻止其大开杀戒的却是一群问题士兵和一位生物科学家凯茜·布拉克(奥立薇娅·玛恩 饰演)。事情却远不像他们想象的那样简单,一场铁血、终极铁血与人类之间的三方猎杀大战正式拉响!


影片参数
  1. Video
  2. ID                                       : 1
  3. ID in the original source medium         : 4113 (0x1011)
  4. Format                                   : AVC
  5. Format/Info                              : Advanced Video Codec
  6. Format profile                           : [email protected]
  7. Format settings                          : CABAC / 2 Ref Frames
  8. Format settings, CABAC                   : Yes
  9. Format settings, Reference frames        : 2 frames
  10. Codec ID                                 : V_MPEG4/ISO/AVC
  11. Duration                                 : 1 h 46 min
  12. Bit rate mode                            : Variable
  13. Bit rate                                 : 26.9 Mb/s
  14. Width                                    : 1 920 pixels
  15. Height                                   : 1 080 pixels
  16. Display aspect ratio                     : 16:9
  17. Frame rate mode                          : Constant
  18. Frame rate                               : 23.976 (24000/1001/189150) FPS
  19. Color space                              : YUV
  20. Chroma subsampling                       : 4:2:0
  21. Bit depth                                : 8 bits
  22. Scan type                                : Progressive
  23. Bits/(Pixel*Frame)                       : 0.541
  24. Stream size                              : 20.1 GiB (62%)
  25. Language                                 : English
  26. Default                                  : No
  27. Forced                                   : No
  28. Original source medium                   : Blu-ray
  29. Audio #1
  30. ID                                       : 2
  31. ID in the original source medium         : 4352 (0x1100)
  32. Format                                   : MLP FBA 16-ch
  33. Format/Info                              : Meridian Lossless Packing FBA with 16-channel presentation
  34. Commercial name                          : Dolby TrueHD with Dolby Atmos
  35. Codec ID                                 : A_TRUEHD
  36. Duration                                 : 1 h 46 min
  37. Bit rate mode                            : Variable
  38. Bit rate                                 : 5 087 kb/s
  39. Maximum bit rate                         : 8 853 kb/s
  40. Channel(s)                               : 8 channels
  41. Channel layout                           : L R C LFE Ls Rs Lb Rb
  42. Sampling rate                            : 48.0 kHz
  43. Frame rate                               : 1 200.000 FPS (40 SPF)
  44. Bit depth                                : 24 bits
  45. Compression mode                         : Lossless
  46. Stream size                              : 3.80 GiB (12%)
  47. Title                                    : TrueHD 7.1 Atmos
  48. Language                                 : English
  49. Default                                  : Yes
  50. Forced                                   : No
  51. Original source medium                   : Blu-ray
  52. Number of dynamic objects                : 13
  53. Bed channel count                        : 1 channel
  54. Bed channel configuration                : LFE
  55. Audio #2
  56. ID                                       : 3
  57. ID in the original source medium         : 4352 (0x1100)
  58. Format                                   : DTS ES XLL
  59. Format/Info                              : Digital Theater Systems
  60. Commercial name                          : DTS-HD Master Audio
  61. Codec ID                                 : A_DTS
  62. Duration                                 : 1 h 46 min
  63. Bit rate mode                            : Variable
  64. Bit rate                                 : 5 095 kb/s
  65. Channel(s)                               : 8 channels
  66. Channel layout                           : C L R Ls Rs LFE Lb Rb
  67. Sampling rate                            : 48.0 kHz
  68. Frame rate                               : 93.750 FPS (512 SPF)
  69. Bit depth                                : 24 bits
  70. Compression mode                         : Lossless
  71. Stream size                              : 3.81 GiB (12%)
  72. Title                                    : DTS-HD MA 7.1
  73. Language                                 : English
  74. Default                                  : No
  75. Forced                                   : No
  76. Original source medium                   : Blu-ray
  77. Audio #3
  78. ID                                       : 4
  79. ID in the original source medium         : 4352 (0x1100)
  80. Format                                   : AC-3
  81. Format/Info                              : Audio Coding 3
  82. Commercial name                          : Dolby Digital
  83. Codec ID                                 : A_AC3
  84. Duration                                 : 1 h 46 min
  85. Bit rate mode                            : Constant
  86. Bit rate                                 : 640 kb/s
  87. Channel(s)                               : 6 channels
  88. Channel layout                           : L R C LFE Ls Rs
  89. Sampling rate                            : 48.0 kHz
  90. Frame rate                               : 31.250 FPS (1536 SPF)
  91. Compression mode                         : Lossy
  92. Stream size                              : 490 MiB (1%)
  93. Title                                    : DD 5.1
  94. Language                                 : English
  95. Service kind                             : Complete Main
  96. Default                                  : No
  97. Forced                                   : No
  98. Original source medium                   : Blu-ray
  99. Audio #4
  100. ID                                       : 5
  101. ID in the original source medium         : 4354 (0x1102)
  102. Format                                   : DTS
  103. Format/Info                              : Digital Theater Systems
  104. Codec ID                                 : A_DTS
  105. Duration                                 : 1 h 46 min
  106. Bit rate mode                            : Constant
  107. Bit rate                                 : 768 kb/s
  108. Channel(s)                               : 6 channels
  109. Channel layout                           : C L R Ls Rs LFE
  110. Sampling rate                            : 48.0 kHz
  111. Frame rate                               : 93.750 FPS (512 SPF)
  112. Bit depth                                : 24 bits
  113. Compression mode                         : Lossy
  114. Stream size                              : 587 MiB (2%)
  115. Title                                    : DTS 5.1
  116. Language                                 : French
  117. Default                                  : No
  118. Forced                                   : No
  119. Original source medium                   : Blu-ray
  120. Audio #5
  121. ID                                       : 6
  122. ID in the original source medium         : 4355 (0x1103)
  123. Format                                   : DTS
  124. Format/Info                              : Digital Theater Systems
  125. Codec ID                                 : A_DTS
  126. Duration                                 : 1 h 46 min
  127. Bit rate mode                            : Constant
  128. Bit rate                                 : 768 kb/s
  129. Channel(s)                               : 6 channels
  130. Channel layout                           : C L R Ls Rs LFE
  131. Sampling rate                            : 48.0 kHz
  132. Frame rate                               : 93.750 FPS (512 SPF)
  133. Bit depth                                : 24 bits
  134. Compression mode                         : Lossy
  135. Stream size                              : 587 MiB (2%)
  136. Title                                    : DTS 5.1
  137. Language                                 : Spanish
  138. Default                                  : No
  139. Forced                                   : No
  140. Original source medium                   : Blu-ray
  141. Audio #6
  142. ID                                       : 7
  143. ID in the original source medium         : 4356 (0x1104)
  144. Format                                   : DTS
  145. Format/Info                              : Digital Theater Systems
  146. Codec ID                                 : A_DTS
  147. Duration                                 : 1 h 46 min
  148. Bit rate mode                            : Constant
  149. Bit rate                                 : 768 kb/s
  150. Channel(s)                               : 6 channels
  151. Channel layout                           : C L R Ls Rs LFE
  152. Sampling rate                            : 48.0 kHz
  153. Frame rate                               : 93.750 FPS (512 SPF)
  154. Bit depth                                : 24 bits
  155. Compression mode                         : Lossy
  156. Stream size                              : 587 MiB (2%)
  157. Title                                    : DTS 5.1
  158. Language                                 : German
  159. Default                                  : No
  160. Forced                                   : No
  161. Original source medium                   : Blu-ray
  162. Audio #7
  163. ID                                       : 8
  164. ID in the original source medium         : 4357 (0x1105)
  165. Format                                   : DTS
  166. Format/Info                              : Digital Theater Systems
  167. Codec ID                                 : A_DTS
  168. Duration                                 : 1 h 46 min
  169. Bit rate mode                            : Constant
  170. Bit rate                                 : 768 kb/s
  171. Channel(s)                               : 6 channels
  172. Channel layout                           : C L R Ls Rs LFE
  173. Sampling rate                            : 48.0 kHz
  174. Frame rate                               : 93.750 FPS (512 SPF)
  175. Bit depth                                : 24 bits
  176. Compression mode                         : Lossy
  177. Stream size                              : 587 MiB (2%)
  178. Title                                    : DTS 5.1
  179. Language                                 : Italian
  180. Default                                  : No
  181. Forced                                   : No
  182. Original source medium                   : Blu-ray
  183. Audio #8
  184. ID                                       : 9
  185. ID in the original source medium         : 4358 (0x1106)
  186. Format                                   : DTS
  187. Format/Info                              : Digital Theater Systems
  188. Codec ID                                 : A_DTS
  189. Duration                                 : 1 h 46 min
  190. Bit rate mode                            : Constant
  191. Bit rate                                 : 768 kb/s
  192. Channel(s)                               : 6 channels
  193. Channel layout                           : C L R Ls Rs LFE
  194. Sampling rate                            : 48.0 kHz
  195. Frame rate                               : 93.750 FPS (512 SPF)
  196. Bit depth                                : 24 bits
  197. Compression mode                         : Lossy
  198. Stream size                              : 587 MiB (2%)
  199. Title                                    : DTS 5.1
  200. Language                                 : Russian
  201. Default                                  : No
  202. Forced                                   : No
  203. Original source medium                   : Blu-ray
  204. Audio #9
  205. ID                                       : 10
  206. ID in the original source medium         : 4359 (0x1107)
  207. Format                                   : AC-3
  208. Format/Info                              : Audio Coding 3
  209. Commercial name                          : Dolby Digital
  210. Codec ID                                 : A_AC3
  211. Duration                                 : 1 h 46 min
  212. Bit rate mode                            : Constant
  213. Bit rate                                 : 448 kb/s
  214. Channel(s)                               : 6 channels
  215. Channel layout                           : L R C LFE Ls Rs
  216. Sampling rate                            : 48.0 kHz
  217. Frame rate                               : 31.250 FPS (1536 SPF)
  218. Compression mode                         : Lossy
  219. Stream size                              : 343 MiB (1%)
  220. Title                                    : DD 5.1
  221. Language                                 : Ukrainian
  222. Service kind                             : Complete Main
  223. Default                                  : No
  224. Forced                                   : No
  225. Original source medium                   : Blu-ray
  226. Audio #10
  227. ID                                       : 11
  228. ID in the original source medium         : 4360 (0x1108)
  229. Format                                   : AC-3
  230. Format/Info                              : Audio Coding 3
  231. Commercial name                          : Dolby Digital
  232. Codec ID                                 : A_AC3
  233. Duration                                 : 1 h 46 min
  234. Bit rate mode                            : Constant
  235. Bit rate                                 : 448 kb/s
  236. Channel(s)                               : 6 channels
  237. Channel layout                           : L R C LFE Ls Rs
  238. Sampling rate                            : 48.0 kHz
  239. Frame rate                               : 31.250 FPS (1536 SPF)
  240. Compression mode                         : Lossy
  241. Stream size                              : 343 MiB (1%)
  242. Title                                    : DD 5.1
  243. Language                                 : Czech
  244. Service kind                             : Complete Main
  245. Default                                  : No
  246. Forced                                   : No
  247. Original source medium                   : Blu-ray
  248. Audio #11
  249. ID                                       : 12
  250. ID in the original source medium         : 4361 (0x1109)
  251. Format                                   : AC-3
  252. Format/Info                              : Audio Coding 3
  253. Commercial name                          : Dolby Digital
  254. Codec ID                                 : A_AC3
  255. Duration                                 : 1 h 46 min
  256. Bit rate mode                            : Constant
  257. Bit rate                                 : 448 kb/s
  258. Channel(s)                               : 6 channels
  259. Channel layout                           : L R C LFE Ls Rs
  260. Sampling rate                            : 48.0 kHz
  261. Frame rate                               : 31.250 FPS (1536 SPF)
  262. Compression mode                         : Lossy
  263. Stream size                              : 343 MiB (1%)
  264. Title                                    : DD 5.1
  265. Language                                 : Polish
  266. Service kind                             : Complete Main
  267. Default                                  : No
  268. Forced                                   : No
  269. Original source medium                   : Blu-ray
  270. Text #1
  271. ID                                       : 13
  272. Format                                   : UTF-8
  273. Codec ID                                 : S_TEXT/UTF8
  274. Codec ID/Info                            : UTF-8 Plain Text
  275. Duration                                 : 2 s 458 ms
  276. Bit rate                                 : 126 b/s
  277. Count of elements                        : 1
  278. Stream size                              : 39.0 Bytes (0%)
  279. Title                                    : FORCED
  280. Language                                 : English
  281. Default                                  : No
  282. Forced                                   : Yes
  283. Text #2
  284. ID                                       : 14
  285. Format                                   : UTF-8
  286. Codec ID                                 : S_TEXT/UTF8
  287. Codec ID/Info                            : UTF-8 Plain Text
  288. Duration                                 : 1 h 37 min
  289. Bit rate                                 : 48 b/s
  290. Count of elements                        : 1356
  291. Stream size                              : 34.9 KiB (0%)
  292. Language                                 : English
  293. Default                                  : No
  294. Forced                                   : No
  295. Text #3
  296. ID                                       : 15
  297. Format                                   : UTF-8
  298. Codec ID                                 : S_TEXT/UTF8
  299. Codec ID/Info                            : UTF-8 Plain Text
  300. Duration                                 : 1 h 38 min
  301. Bit rate                                 : 58 b/s
  302. Count of elements                        : 1691
  303. Stream size                              : 42.1 KiB (0%)
  304. Title                                    : SDH
  305. Language                                 : English
  306. Default                                  : No
  307. Forced                                   : No
  308. Text #4
  309. ID                                       : 16
  310. ID in the original source medium         : 4610 (0x1202)
  311. Format                                   : PGS
  312. Muxing mode                              : zlib
  313. Codec ID                                 : S_HDMV/PGS
  314. Codec ID/Info                            : Picture based subtitle format used on BDs/HD-DVDs
  315. Duration                                 : 1 h 37 min
  316. Bit rate                                 : 54.0 kb/s
  317. Count of elements                        : 2602
  318. Stream size                              : 37.6 MiB (0%)
  319. Title                                    : SDH
  320. Language                                 : English
  321. Default                                  : No
  322. Forced                                   : No
  323. Original source medium                   : Blu-ray
  324. Text #5
  325. ID                                       : 17
  326. ID in the original source medium         : 4612 (0x1204)
  327. Format                                   : PGS
  328. Muxing mode                              : zlib
  329. Codec ID                                 : S_HDMV/PGS
  330. Codec ID/Info                            : Picture based subtitle format used on BDs/HD-DVDs
  331. Duration                                 : 1 h 44 min
  332. Bit rate                                 : 38.6 kb/s
  333. Count of elements                        : 2234
  334. Stream size                              : 28.8 MiB (0%)
  335. Language                                 : French
  336. Default                                  : No
  337. Forced                                   : No
  338. Original source medium                   : Blu-ray
  339. Text #6
  340. ID                                       : 18
  341. ID in the original source medium         : 4613 (0x1205)
  342. Format                                   : PGS
  343. Muxing mode                              : zlib
  344. Codec ID                                 : S_HDMV/PGS
  345. Codec ID/Info                            : Picture based subtitle format used on BDs/HD-DVDs
  346. Duration                                 : 1 h 45 min
  347. Bit rate                                 : 44.0 kb/s
  348. Count of elements                        : 2486
  349. Stream size                              : 33.2 MiB (0%)
  350. Language                                 : Spanish
  351. Default                                  : No
  352. Forced                                   : No
  353. Original source medium                   : Blu-ray
  354. Text #7
  355. ID                                       : 19
  356. ID in the original source medium         : 4614 (0x1206)
  357. Format                                   : PGS
  358. Muxing mode                              : zlib
  359. Codec ID                                 : S_HDMV/PGS
  360. Codec ID/Info                            : Picture based subtitle format used on BDs/HD-DVDs
  361. Duration                                 : 1 h 44 min
  362. Bit rate                                 : 39.1 kb/s
  363. Count of elements                        : 1620
  364. Stream size                              : 29.2 MiB (0%)
  365. Language                                 : Danish
  366. Default                                  : No
  367. Forced                                   : No
  368. Original source medium                   : Blu-ray
  369. Text #8
  370. ID                                       : 20
  371. ID in the original source medium         : 4615 (0x1207)
  372. Format                                   : PGS
  373. Muxing mode                              : zlib
  374. Codec ID                                 : S_HDMV/PGS
  375. Codec ID/Info                            : Picture based subtitle format used on BDs/HD-DVDs
  376. Duration                                 : 1 h 44 min
  377. Bit rate                                 : 40.2 kb/s
  378. Count of elements                        : 1712
  379. Stream size                              : 30.0 MiB (0%)
  380. Language                                 : Dutch
  381. Default                                  : No
  382. Forced                                   : No
  383. Original source medium                   : Blu-ray
  384. Text #9
  385. ID                                       : 21
  386. ID in the original source medium         : 4616 (0x1208)
  387. Format                                   : PGS
  388. Muxing mode                              : zlib
  389. Codec ID                                 : S_HDMV/PGS
  390. Codec ID/Info                            : Picture based subtitle format used on BDs/HD-DVDs
  391. Duration                                 : 1 h 44 min
  392. Bit rate                                 : 40.8 kb/s
  393. Count of elements                        : 2528
  394. Stream size                              : 30.5 MiB (0%)
  395. Language                                 : Finnish
  396. Default                                  : No
  397. Forced                                   : No
  398. Original source medium                   : Blu-ray
  399. Text #10
  400. ID                                       : 22
  401. ID in the original source medium         : 4617 (0x1209)
  402. Format                                   : PGS
  403. Muxing mode                              : zlib
  404. Codec ID                                 : S_HDMV/PGS
  405. Codec ID/Info                            : Picture based subtitle format used on BDs/HD-DVDs
  406. Duration                                 : 1 h 45 min
  407. Bit rate                                 : 44.9 kb/s
  408. Count of elements                        : 2378
  409. Stream size                              : 34.0 MiB (0%)
  410. Language                                 : German
  411. Default                                  : No
  412. Forced                                   : No
  413. Original source medium                   : Blu-ray
  414. Text #11
  415. ID                                       : 23
  416. ID in the original source medium         : 4618 (0x120A)
  417. Format                                   : PGS
  418. Muxing mode                              : zlib
  419. Codec ID                                 : S_HDMV/PGS
  420. Codec ID/Info                            : Picture based subtitle format used on BDs/HD-DVDs
  421. Duration                                 : 1 h 44 min
  422. Bit rate                                 : 44.0 kb/s
  423. Count of elements                        : 2518
  424. Stream size                              : 32.9 MiB (0%)
  425. Language                                 : Italian
  426. Default                                  : No
  427. Forced                                   : No
  428. Original source medium                   : Blu-ray
  429. Text #12
  430. ID                                       : 24
  431. ID in the original source medium         : 4619 (0x120B)
  432. Format                                   : PGS
  433. Muxing mode                              : zlib
  434. Codec ID                                 : S_HDMV/PGS
  435. Codec ID/Info                            : Picture based subtitle format used on BDs/HD-DVDs
  436. Duration                                 : 1 h 44 min
  437. Bit rate                                 : 43.5 kb/s
  438. Count of elements                        : 2532
  439. Stream size                              : 32.4 MiB (0%)
  440. Language                                 : Norwegian
  441. Default                                  : No
  442. Forced                                   : No
  443. Original source medium                   : Blu-ray
  444. Text #13
  445. ID                                       : 25
  446. ID in the original source medium         : 4620 (0x120C)
  447. Format                                   : PGS
  448. Muxing mode                              : zlib
  449. Codec ID                                 : S_HDMV/PGS
  450. Codec ID/Info                            : Picture based subtitle format used on BDs/HD-DVDs
  451. Duration                                 : 1 h 45 min
  452. Bit rate                                 : 46.0 kb/s
  453. Count of elements                        : 2536
  454. Stream size                              : 34.8 MiB (0%)
  455. Language                                 : Russian
  456. Default                                  : No
  457. Forced                                   : No
  458. Original source medium                   : Blu-ray
  459. Text #14
  460. ID                                       : 26
  461. ID in the original source medium         : 4621 (0x120D)
  462. Format                                   : PGS
  463. Muxing mode                              : zlib
  464. Codec ID                                 : S_HDMV/PGS
  465. Codec ID/Info                            : Picture based subtitle format used on BDs/HD-DVDs
  466. Duration                                 : 1 h 44 min
  467. Bit rate                                 : 44.6 kb/s
  468. Count of elements                        : 2514
  469. Stream size                              : 33.3 MiB (0%)
  470. Language                                 : Swedish
  471. Default                                  : No
  472. Forced                                   : No
  473. Original source medium                   : Blu-ray
  474. Text #15
  475. ID                                       : 27
  476. ID in the original source medium         : 4622 (0x120E)
  477. Format                                   : PGS
  478. Muxing mode                              : zlib
  479. Codec ID                                 : S_HDMV/PGS
  480. Codec ID/Info                            : Picture based subtitle format used on BDs/HD-DVDs
  481. Duration                                 : 1 h 45 min
  482. Bit rate                                 : 46.7 kb/s
  483. Count of elements                        : 2528
  484. Stream size                              : 35.3 MiB (0%)
  485. Language                                 : Estonian
  486. Default                                  : No
  487. Forced                                   : No
  488. Original source medium                   : Blu-ray
  489. Text #16
  490. ID                                       : 28
  491. ID in the original source medium         : 4623 (0x120F)
  492. Format                                   : PGS
  493. Muxing mode                              : zlib
  494. Codec ID                                 : S_HDMV/PGS
  495. Codec ID/Info                            : Picture based subtitle format used on BDs/HD-DVDs
  496. Duration                                 : 1 h 45 min
  497. Bit rate                                 : 44.5 kb/s
  498. Count of elements                        : 2530
  499. Stream size                              : 33.6 MiB (0%)
  500. Language                                 : Latvian
  501. Default                                  : No
  502. Forced                                   : No
  503. Original source medium                   : Blu-ray
  504. Text #17
  505. ID                                       : 29
  506. ID in the original source medium         : 4624 (0x1210)
  507. Format                                   : PGS
  508. Muxing mode                              : zlib
  509. Codec ID                                 : S_HDMV/PGS
  510. Codec ID/Info                            : Picture based subtitle format used on BDs/HD-DVDs
  511. Duration                                 : 1 h 45 min
  512. Bit rate                                 : 44.1 kb/s
  513. Count of elements                        : 2518
  514. Stream size                              : 33.4 MiB (0%)
  515. Language                                 : Lithuanian
  516. Default                                  : No
  517. Forced                                   : No
  518. Original source medium                   : Blu-ray
  519. Text #18
  520. ID                                       : 30
  521. ID in the original source medium         : 4625 (0x1211)
  522. Format                                   : PGS
  523. Muxing mode                              : zlib
  524. Codec ID                                 : S_HDMV/PGS
  525. Codec ID/Info                            : Picture based subtitle format used on BDs/HD-DVDs
  526. Duration                                 : 1 h 45 min
  527. Bit rate                                 : 45.0 kb/s
  528. Count of elements                        : 2538
  529. Stream size                              : 34.0 MiB (0%)
  530. Language                                 : Ukrainian
  531. Default                                  : No
  532. Forced                                   : No
  533. Original source medium                   : Blu-ray
  534. Text #19
  535. ID                                       : 31
  536. ID in the original source medium         : 4626 (0x1212)
  537. Format                                   : PGS
  538. Muxing mode                              : zlib
  539. Codec ID                                 : S_HDMV/PGS
  540. Codec ID/Info                            : Picture based subtitle format used on BDs/HD-DVDs
  541. Duration                                 : 1 h 45 min
  542. Bit rate                                 : 52.4 kb/s
  543. Count of elements                        : 2534
  544. Stream size                              : 39.6 MiB (0%)
  545. Language                                 : Vietnamese
  546. Default                                  : No
  547. Forced                                   : No
  548. Original source medium                   : Blu-ray
  549. Text #20
  550. ID                                       : 32
  551. ID in the original source medium         : 4782 (0x12AE)
  552. Format                                   : PGS
  553. Muxing mode                              : zlib
  554. Codec ID                                 : S_HDMV/PGS
  555. Codec ID/Info                            : Picture based subtitle format used on BDs/HD-DVDs
  556. Duration                                 : 1 h 45 min
  557. Bit rate                                 : 32.0 kb/s
  558. Count of elements                        : 2538
  559. Stream size                              : 24.2 MiB (0%)
  560. Language                                 : Chinese
  561. Default                                  : No
  562. Forced                                   : No
  563. Original source medium                   : Blu-ray
  564. Text #21
  565. ID                                       : 33
  566. ID in the original source medium         : 4783 (0x12AF)
  567. Format                                   : PGS
  568. Muxing mode                              : zlib
  569. Codec ID                                 : S_HDMV/PGS
  570. Codec ID/Info                            : Picture based subtitle format used on BDs/HD-DVDs
  571. Duration                                 : 1 h 45 min
  572. Bit rate                                 : 45.5 kb/s
  573. Count of elements                        : 2540
  574. Stream size                              : 34.4 MiB (0%)
  575. Language                                 : Czech
  576. Default                                  : No
  577. Forced                                   : No
  578. Original source medium                   : Blu-ray
  579. Text #22
  580. ID                                       : 34
  581. ID in the original source medium         : 4784 (0x12B0)
  582. Format                                   : PGS
  583. Muxing mode                              : zlib
  584. Codec ID                                 : S_HDMV/PGS
  585. Codec ID/Info                            : Picture based subtitle format used on BDs/HD-DVDs
  586. Duration                                 : 1 h 45 min
  587. Bit rate                                 : 36.1 kb/s
  588. Count of elements                        : 2522
  589. Stream size                              : 27.3 MiB (0%)
  590. Language                                 : Korean
  591. Default                                  : No
  592. Forced                                   : No
  593. Original source medium                   : Blu-ray
  594. Text #23
  595. ID                                       : 35
  596. ID in the original source medium         : 4785 (0x12B1)
  597. Format                                   : PGS
  598. Muxing mode                              : zlib
  599. Codec ID                                 : S_HDMV/PGS
  600. Codec ID/Info                            : Picture based subtitle format used on BDs/HD-DVDs
  601. Duration                                 : 1 h 44 min
  602. Bit rate                                 : 34.7 kb/s
  603. Count of elements                        : 2634
  604. Stream size                              : 25.9 MiB (0%)
  605. Language                                 : Chinese
  606. Default                                  : No
  607. Forced                                   : No
  608. Original source medium                   : Blu-ray
  609. Text #24
  610. ID                                       : 36
  611. ID in the original source medium         : 4786 (0x12B2)
  612. Format                                   : PGS
  613. Muxing mode                              : zlib
  614. Codec ID                                 : S_HDMV/PGS
  615. Codec ID/Info                            : Picture based subtitle format used on BDs/HD-DVDs
  616. Duration                                 : 1 h 44 min
  617. Bit rate                                 : 39.0 kb/s
  618. Count of elements                        : 2412
  619. Stream size                              : 29.1 MiB (0%)
  620. Language                                 : Polish
  621. Default                                  : No
  622. Forced                                   : No
  623. Original source medium                   : Blu-ray
  624. Menu
  625. 00:00:00.000                             : en:Chapter 01
  626. 00:02:00.703                             : en:Chapter 02
  627. 00:08:32.678                             : en:Chapter 03
  628. 00:09:45.334                             : en:Chapter 04
  629. 00:13:47.326                             : en:Chapter 05
  630. 00:16:09.176                             : en:Chapter 06
  631. 00:17:36.430                             : en:Chapter 07
  632. 00:20:21.470                             : en:Chapter 08
  633. 00:25:01.750                             : en:Chapter 09
  634. 00:27:36.237                             : en:Chapter 10
  635. 00:31:09.951                             : en:Chapter 11
  636. 00:36:23.181                             : en:Chapter 12
  637. 00:38:00.653                             : en:Chapter 13
  638. 00:39:42.546                             : en:Chapter 14
  639. 00:44:34.713                             : en:Chapter 15
  640. 00:49:15.577                             : en:Chapter 16
  641. 00:53:18.820                             : en:Chapter 17
  642. 00:58:34.385                             : en:Chapter 18
  643. 00:59:58.928                             : en:Chapter 19
  644. 01:03:15.958                             : en:Chapter 20
  645. 01:06:36.701                             : en:Chapter 21
  646. 01:09:51.020                             : en:Chapter 22
  647. 01:12:26.550                             : en:Chapter 23
  648. 01:15:55.634                             : en:Chapter 24
  649. 01:18:52.352                             : en:Chapter 25
  650. 01:21:24.629                             : en:Chapter 26
  651. 01:23:08.942                             : en:Chapter 27
  652. 01:27:08.806                             : en:Chapter 28
  653. 01:30:55.116                             : en:Chapter 29
  654. 01:32:14.820                             : en:Chapter 30
  655. 01:35:08.160                             : en:Chapter 31
  656. 01:40:00.202                             : en:Chapter 32
复制代码



4K321提示您 点击下方附件即可下载

铁血战士 The.Predator.2018.1080p.BluRay.REMUX.AVC.DTS-HD.MA.TrueHD.7.1.Atmos-FGT 32.44GB

The.Predator.2018.1080p.BluRay.REMUX.AVC.DTS-HD.MA.TrueHD.7.1.Atmos-FGT.torrent ( 41.21 KB )

回复

使用道具 举报

全部回复0 显示全部楼层

声明:您在社区发表的所有信息仅代表用户个人观点,与本网站立场无关,希望各位烧友理性发言,不发表违法国家法律禁止的话题。

您需要登录后才可以回帖 登录 | 立即注册

本版积分规则

联系客服 关注微信 下载APP 返回顶部 返回列表