开启左侧

[剧情片] 萤火虫之墓 Grave.of.the.Fireflies.1988.JAPANESE.1080p.BluRay.REMUX.AVC.DTS-HD.MA.2.0-FGT 23.06GB

蓝鸟 发表于 2022-6-2 21:02:51 | 显示全部楼层 |阅读模式

萤火虫之墓 Grave.of.the.Fireflies.1988.JAPANESE.1080p.BluRay.REMUX.AVC.DTS-HD.MA.2.0-FGT 23.06GB ...

萤火虫之墓 Grave.of.the.Fireflies.1988.JAPANESE.1080p.BluRay.REMUX.AVC.DTS-HD.MA.2.0-FGT 23.06GB ...


译  名 萤火虫之墓 / 再见萤火虫(港) / 萤火挽歌 / 火帘之墓 / Hotaru no haka / Tombstone for Fireflies / Grave of the Fireflies / Tomb of the Fireflies
片  名 火垂るの墓
年  代 1988
产  地 日本
类  别 剧情 / 动画 / 战争
语  言 日语
上映日期 1988-04-16(日本)
豆瓣评分 8.7/10 (376309人评价)
片  长 89 分钟
导  演 高畑勋 Isao Takahata
编  剧 高畑勋 Isao Takahata
       野坂昭如 Akiyuki Nosaka
演  员 大地丙太郎 Akitar? Daichi
       近藤喜文 Yoshifumi Kondo
       梅津泰臣 Yasuomi Umetsu
       木上益治 Kigami Yoshiji
       高坂希太郎 Kitaro Kosaka
       近藤喜文 Yoshifumi Kondo

简  介

美日战争爆发,14岁的清太带着年幼的妹妹到处逃命,当他们到达防空洞的时候,母亲已身受重伤,没过多久便不久人世。两兄妹自此过着相依为命的日子。他们只好投靠了母亲的姐妹,纵使他们把家里所有的家当都送给了阿姨,但当食物吃完,他们就越感到了寄人篱下的感觉,清太决定带着妹妹离开独自生活。火灾硝烟中的生活并不好过,清太为了妹妹四处偷取食物,但妹妹还是严重营养不良……


影片参数
  1. Video
  2. ID                                       : 1
  3. ID in the original source medium         : 4113 (0x1011)
  4. Format                                   : AVC
  5. Format/Info                              : Advanced Video Codec
  6. Format profile                           : [email protected]
  7. Format settings                          : CABAC / 2 Ref Frames
  8. Format settings, CABAC                   : Yes
  9. Format settings, Reference frames        : 2 frames
  10. Format settings, GOP                     : M=3, N=24
  11. Codec ID                                 : V_MPEG4/ISO/AVC
  12. Duration                                 : 1 h 28 min
  13. Bit rate                                 : 35.1 Mb/s
  14. Width                                    : 1 920 pixels
  15. Height                                   : 1 080 pixels
  16. Display aspect ratio                     : 16:9
  17. Frame rate mode                          : Constant
  18. Frame rate                               : 23.976 (24000/1001/189150) FPS
  19. Color space                              : YUV
  20. Chroma subsampling                       : 4:2:0
  21. Bit depth                                : 8 bits
  22. Scan type                                : Progressive
  23. Bits/(Pixel*Frame)                       : 0.707
  24. Stream size                              : 21.7 GiB (94%)
  25. Language                                 : English
  26. Default                                  : No
  27. Forced                                   : No
  28. Original source medium                   : Blu-ray
  29. Audio
  30. ID                                       : 2
  31. ID in the original source medium         : 4352 (0x1100)
  32. Format                                   : DTS XLL
  33. Format/Info                              : Digital Theater Systems
  34. Commercial name                          : DTS-HD Master Audio
  35. Codec ID                                 : A_DTS
  36. Duration                                 : 1 h 28 min
  37. Bit rate mode                            : Variable
  38. Bit rate                                 : 2 120 kb/s
  39. Channel(s)                               : 2 channels
  40. Sampling rate                            : 48.0 kHz
  41. Frame rate                               : 93.750 FPS (512 SPF)
  42. Bit depth                                : 24 bits
  43. Compression mode                         : Lossless
  44. Stream size                              : 1.31 GiB (6%)
  45. Title                                    : DTS-HD MA 2.0
  46. Language                                 : Japanese
  47. Default                                  : Yes
  48. Forced                                   : No
  49. Original source medium                   : Blu-ray
  50. Text #1
  51. ID                                       : 3
  52. Format                                   : UTF-8
  53. Codec ID                                 : S_TEXT/UTF8
  54. Codec ID/Info                            : UTF-8 Plain Text
  55. Duration                                 : 1 h 28 min
  56. Bit rate                                 : 24 b/s
  57. Count of elements                        : 589
  58. Stream size                              : 16.0 KiB (0%)
  59. Language                                 : English
  60. Default                                  : Yes
  61. Forced                                   : No
  62. Text #2
  63. ID                                       : 4
  64. ID in the original source medium         : 4609 (0x1201)
  65. Format                                   : PGS
  66. Muxing mode                              : zlib
  67. Codec ID                                 : S_HDMV/PGS
  68. Codec ID/Info                            : Picture based subtitle format used on BDs/HD-DVDs
  69. Duration                                 : 1 h 28 min
  70. Bit rate                                 : 19.8 kb/s
  71. Count of elements                        : 1182
  72. Stream size                              : 12.5 MiB (0%)
  73. Language                                 : English
  74. Default                                  : No
  75. Forced                                   : No
  76. Original source medium                   : Blu-ray
  77. Text #3
  78. ID                                       : 5
  79. ID in the original source medium         : 4608 (0x1200)
  80. Format                                   : PGS
  81. Muxing mode                              : zlib
  82. Codec ID                                 : S_HDMV/PGS
  83. Codec ID/Info                            : Picture based subtitle format used on BDs/HD-DVDs
  84. Duration                                 : 1 h 25 min
  85. Bit rate                                 : 20.5 kb/s
  86. Count of elements                        : 1699
  87. Stream size                              : 12.5 MiB (0%)
  88. Language                                 : Japanese
  89. Default                                  : No
  90. Forced                                   : No
  91. Original source medium                   : Blu-ray
  92. Menu
  93. 00:00:00.000                             : en:Chapter 01
  94. 00:03:27.540                             : en:Chapter 02
  95. 00:13:24.178                             : en:Chapter 03
  96. 00:25:54.594                             : en:Chapter 04
  97. 00:36:15.715                             : en:Chapter 05
  98. 00:43:36.363                             : en:Chapter 06
  99. 00:52:10.252                             : en:Chapter 07
  100. 00:56:29.386                             : en:Chapter 08
  101. 01:04:10.346                             : en:Chapter 09
  102. 01:13:30.322                             : en:Chapter 10
  103. 01:19:35.645                             : en:Chapter 11
  104. 01:25:33.920                             : en:Chapter 12
  105. 01:28:31.597                             : en:Chapter 13
复制代码



4K321提示您 点击下方附件即可下载

萤火虫之墓 Grave.of.the.Fireflies.1988.JAPANESE.1080p.BluRay.REMUX.AVC.DTS-HD.MA.2.0-FGT 23.06GB

Grave.of.the.Fireflies.1988.JAPANESE.1080p.BluRay.REMUX.AVC.DTS-HD.MA.2.0-FGT.torrent ( 29.5 KB )

回复

使用道具 举报

全部回复0 显示全部楼层

声明:您在社区发表的所有信息仅代表用户个人观点,与本网站立场无关,希望各位烧友理性发言,不发表违法国家法律禁止的话题。

您需要登录后才可以回帖 登录 | 立即注册

本版积分规则

联系客服 关注微信 下载APP 返回顶部 返回列表