开启左侧

[剧情片] 美国X档案 American.History.X.1998.1080p.BluRay.REMUX.VC-1.DTS-HD.MA.7.1-FGT 27.97GB

蓝鸟 发表于 2022-6-2 21:00:52 | 显示全部楼层 |阅读模式

美国X档案 American.History.X.1998.1080p.BluRay.REMUX.VC-1.DTS-HD.MA.7.1-FGT 27.97GB

美国X档案 American.History.X.1998.1080p.BluRay.REMUX.VC-1.DTS-HD.MA.7.1-FGT 27.97GB


译  名 美国X档案 / 野兽良民(港) / 美国历史档案 / 美国X历史
片  名 American History X
年  代 1998
产  地 美国
类  别 剧情 / 犯罪
语  言 英语
上映日期 1998-10-30
豆瓣评分 8.5/10 (90080人评价)
片  长 119 分钟
导  演 托尼·凯耶 Tony Kaye
编  剧 戴维·麦克纳 David McKenna
演  员 爱德华·诺顿 Edward Norton
       爱德华·福隆 Edward Furlong
       比佛莉·德安姬罗 Beverly D''Angelo
       艾弗利·布鲁克斯 Avery Brooks
       威廉姆·拉斯 William Russ
       斯泰西·基齐 Stacy Keach
       埃利奥特·古尔德 Elliott Gould
       费尔鲁扎·鲍克 Fairuza Balk
       盖·托利 Guy Torry
       詹妮弗·林 Jennifer Lien
       伊桑·苏普利 Ethan Suplee
       Paul E. Short Paul E. Short
       丹尼·皮尔斯 Denney Pierce
       迈克·德·鲁卡 Michael De Luca
       Bill Carraro Bill Carraro
       Jon Hess Jon Hess
       安妮·达德莉 Anne Dudley
       托尼·凯耶 Tony Kaye
       阿兰·海姆 Alan Heim
       约翰·E·杰克森 John E. Jackson
       朱迪斯·A·科里 Judith A. Cory
       David Larson David Larson

简  介

德瑞克(爱德华?诺顿 Edward Norton 饰)的父亲在他很小的时候就被一名黑人毒贩射杀,从此给他幼小的心灵埋下了仇恨的种子。原来德瑞克功课很好,是老师眼中的好学生。但自从父亲遇难后,他就将一切心机都放在了对付有色人种上面。他积极组织起一帮白人青年混混,到处和有色人种对着干。一次,他射杀了两名黑人,因此入狱。                                    
                                入狱后,德瑞克加入了一伙新纳粹的白人。后来,因工作关系他和一名黑人成了好友,他开始反思自己的过去。当他意欲脱离狱中新纳粹组织时,遭到了拳打脚踢。德瑞克出狱后,决心和以前自己组织的帮会脱离关系,带着弟弟远走他乡开始新的生活。


获奖情况 (共1项)

第71届奥斯卡金像奖 (1999)
  最佳男主角(提名)
   └──爱德华·诺顿


影片参数
  1. Video
  2. ID                                       : 1
  3. ID in the original source medium         : 4113 (0x1011)
  4. Format                                   : VC-1
  5. Format profile                           : [email protected]
  6. Codec ID                                 : V_MS/VFW/FOURCC / WVC1
  7. Codec ID/Hint                            : Microsoft
  8. Duration                                 : 1 h 58 min
  9. Bit rate                                 : 27.1 Mb/s
  10. Width                                    : 1 920 pixels
  11. Height                                   : 1 080 pixels
  12. Display aspect ratio                     : 16:9
  13. Frame rate mode                          : Constant
  14. Frame rate                               : 23.976 (24000/1001/189150) FPS
  15. Color space                              : YUV
  16. Chroma subsampling                       : 4:2:0
  17. Bit depth                                : 8 bits
  18. Scan type                                : Progressive
  19. Compression mode                         : Lossy
  20. Bits/(Pixel*Frame)                       : 0.545
  21. Stream size                              : 22.5 GiB (80%)
  22. Language                                 : English
  23. Default                                  : No
  24. Forced                                   : No
  25. Original source medium                   : Blu-ray
  26. Audio #1
  27. ID                                       : 2
  28. ID in the original source medium         : 4352 (0x1100)
  29. Format                                   : DTS ES XLL
  30. Format/Info                              : Digital Theater Systems
  31. Commercial name                          : DTS-HD Master Audio
  32. Codec ID                                 : A_DTS
  33. Duration                                 : 1 h 58 min
  34. Bit rate mode                            : Variable
  35. Bit rate                                 : 5 242 kb/s
  36. Channel(s)                               : 8 channels
  37. Channel layout                           : C L R Ls Rs LFE Lb Rb
  38. Sampling rate                            : 48.0 kHz
  39. Frame rate                               : 93.750 FPS (512 SPF)
  40. Bit depth                                : 24 bits
  41. Compression mode                         : Lossless
  42. Stream size                              : 4.35 GiB (16%)
  43. Title                                    : DTS-HD MA 7.1
  44. Language                                 : English
  45. Default                                  : Yes
  46. Forced                                   : No
  47. Original source medium                   : Blu-ray
  48. Audio #2
  49. ID                                       : 3
  50. ID in the original source medium         : 4353 (0x1101)
  51. Format                                   : AC-3
  52. Format/Info                              : Audio Coding 3
  53. Commercial name                          : Dolby Digital
  54. Codec ID                                 : A_AC3
  55. Duration                                 : 1 h 58 min
  56. Bit rate mode                            : Constant
  57. Bit rate                                 : 640 kb/s
  58. Channel(s)                               : 6 channels
  59. Channel layout                           : L R C LFE Ls Rs
  60. Sampling rate                            : 48.0 kHz
  61. Frame rate                               : 31.250 FPS (1536 SPF)
  62. Compression mode                         : Lossy
  63. Stream size                              : 544 MiB (2%)
  64. Title                                    : DD 5.1
  65. Language                                 : German
  66. Service kind                             : Complete Main
  67. Default                                  : No
  68. Forced                                   : No
  69. Original source medium                   : Blu-ray
  70. Audio #3
  71. ID                                       : 4
  72. ID in the original source medium         : 4354 (0x1102)
  73. Format                                   : AC-3
  74. Format/Info                              : Audio Coding 3
  75. Commercial name                          : Dolby Digital
  76. Format settings                          : Dolby Surround
  77. Codec ID                                 : A_AC3
  78. Duration                                 : 1 h 58 min
  79. Bit rate mode                            : Constant
  80. Bit rate                                 : 192 kb/s
  81. Channel(s)                               : 2 channels
  82. Channel layout                           : L R
  83. Sampling rate                            : 48.0 kHz
  84. Frame rate                               : 31.250 FPS (1536 SPF)
  85. Compression mode                         : Lossy
  86. Stream size                              : 163 MiB (0%)
  87. Title                                    : DD 2.0
  88. Language                                 : Spanish
  89. Service kind                             : Complete Main
  90. Default                                  : No
  91. Forced                                   : No
  92. Original source medium                   : Blu-ray
  93. Audio #4
  94. ID                                       : 5
  95. ID in the original source medium         : 4355 (0x1103)
  96. Format                                   : AC-3
  97. Format/Info                              : Audio Coding 3
  98. Commercial name                          : Dolby Digital
  99. Format settings                          : Dolby Surround
  100. Codec ID                                 : A_AC3
  101. Duration                                 : 1 h 58 min
  102. Bit rate mode                            : Constant
  103. Bit rate                                 : 192 kb/s
  104. Channel(s)                               : 2 channels
  105. Channel layout                           : L R
  106. Sampling rate                            : 48.0 kHz
  107. Frame rate                               : 31.250 FPS (1536 SPF)
  108. Compression mode                         : Lossy
  109. Stream size                              : 163 MiB (0%)
  110. Title                                    : DD 2.0
  111. Language                                 : Spanish
  112. Service kind                             : Complete Main
  113. Default                                  : No
  114. Forced                                   : No
  115. Original source medium                   : Blu-ray
  116. Audio #5
  117. ID                                       : 6
  118. ID in the original source medium         : 4356 (0x1104)
  119. Format                                   : AC-3
  120. Format/Info                              : Audio Coding 3
  121. Commercial name                          : Dolby Digital
  122. Format settings                          : Dolby Surround
  123. Codec ID                                 : A_AC3
  124. Duration                                 : 1 h 58 min
  125. Bit rate mode                            : Constant
  126. Bit rate                                 : 192 kb/s
  127. Channel(s)                               : 2 channels
  128. Channel layout                           : L R
  129. Sampling rate                            : 48.0 kHz
  130. Frame rate                               : 31.250 FPS (1536 SPF)
  131. Compression mode                         : Lossy
  132. Stream size                              : 163 MiB (0%)
  133. Title                                    : DD 2.0
  134. Language                                 : Portuguese
  135. Service kind                             : Complete Main
  136. Default                                  : No
  137. Forced                                   : No
  138. Original source medium                   : Blu-ray
  139. Text #1
  140. ID                                       : 7
  141. Format                                   : UTF-8
  142. Codec ID                                 : S_TEXT/UTF8
  143. Codec ID/Info                            : UTF-8 Plain Text
  144. Duration                                 : 1 h 51 min
  145. Bit rate                                 : 75 b/s
  146. Count of elements                        : 1522
  147. Stream size                              : 61.5 KiB (0%)
  148. Language                                 : English
  149. Default                                  : Yes
  150. Forced                                   : No
  151. Text #2
  152. ID                                       : 8
  153. Format                                   : UTF-8
  154. Codec ID                                 : S_TEXT/UTF8
  155. Codec ID/Info                            : UTF-8 Plain Text
  156. Duration                                 : 1 h 55 min
  157. Bit rate                                 : 73 b/s
  158. Count of elements                        : 1569
  159. Stream size                              : 62.4 KiB (0%)
  160. Title                                    : SDH
  161. Language                                 : English
  162. Default                                  : No
  163. Forced                                   : No
  164. Text #3
  165. ID                                       : 9
  166. ID in the original source medium         : 4609 (0x1201)
  167. Format                                   : PGS
  168. Muxing mode                              : zlib
  169. Codec ID                                 : S_HDMV/PGS
  170. Codec ID/Info                            : Picture based subtitle format used on BDs/HD-DVDs
  171. Duration                                 : 1 h 55 min
  172. Bit rate                                 : 43.0 kb/s
  173. Count of elements                        : 3204
  174. Stream size                              : 35.7 MiB (0%)
  175. Language                                 : English
  176. Default                                  : No
  177. Forced                                   : No
  178. Original source medium                   : Blu-ray
  179. Text #4
  180. ID                                       : 10
  181. ID in the original source medium         : 4610 (0x1202)
  182. Format                                   : PGS
  183. Muxing mode                              : zlib
  184. Codec ID                                 : S_HDMV/PGS
  185. Codec ID/Info                            : Picture based subtitle format used on BDs/HD-DVDs
  186. Duration                                 : 1 h 55 min
  187. Bit rate                                 : 45.2 kb/s
  188. Count of elements                        : 3214
  189. Stream size                              : 37.5 MiB (0%)
  190. Language                                 : German
  191. Default                                  : No
  192. Forced                                   : No
  193. Original source medium                   : Blu-ray
  194. Text #5
  195. ID                                       : 11
  196. ID in the original source medium         : 4611 (0x1203)
  197. Format                                   : PGS
  198. Muxing mode                              : zlib
  199. Codec ID                                 : S_HDMV/PGS
  200. Codec ID/Info                            : Picture based subtitle format used on BDs/HD-DVDs
  201. Duration                                 : 1 h 54 min
  202. Bit rate                                 : 40.4 kb/s
  203. Count of elements                        : 3128
  204. Stream size                              : 33.2 MiB (0%)
  205. Language                                 : Spanish
  206. Default                                  : No
  207. Forced                                   : No
  208. Original source medium                   : Blu-ray
  209. Text #6
  210. ID                                       : 12
  211. ID in the original source medium         : 4612 (0x1204)
  212. Format                                   : PGS
  213. Muxing mode                              : zlib
  214. Codec ID                                 : S_HDMV/PGS
  215. Codec ID/Info                            : Picture based subtitle format used on BDs/HD-DVDs
  216. Duration                                 : 1 h 58 min
  217. Bit rate                                 : 39.2 kb/s
  218. Count of elements                        : 3114
  219. Stream size                              : 33.2 MiB (0%)
  220. Language                                 : Spanish
  221. Default                                  : No
  222. Forced                                   : No
  223. Original source medium                   : Blu-ray
  224. Text #7
  225. ID                                       : 13
  226. ID in the original source medium         : 4613 (0x1205)
  227. Format                                   : PGS
  228. Muxing mode                              : zlib
  229. Codec ID                                 : S_HDMV/PGS
  230. Codec ID/Info                            : Picture based subtitle format used on BDs/HD-DVDs
  231. Duration                                 : 1 h 58 min
  232. Bit rate                                 : 37.2 kb/s
  233. Count of elements                        : 3130
  234. Stream size                              : 31.4 MiB (0%)
  235. Language                                 : Portuguese
  236. Default                                  : No
  237. Forced                                   : No
  238. Original source medium                   : Blu-ray
  239. Text #8
  240. ID                                       : 14
  241. ID in the original source medium         : 4614 (0x1206)
  242. Format                                   : PGS
  243. Muxing mode                              : zlib
  244. Codec ID                                 : S_HDMV/PGS
  245. Codec ID/Info                            : Picture based subtitle format used on BDs/HD-DVDs
  246. Duration                                 : 1 h 54 min
  247. Bit rate                                 : 30.0 kb/s
  248. Count of elements                        : 2283
  249. Stream size                              : 24.6 MiB (0%)
  250. Language                                 : Danish
  251. Default                                  : No
  252. Forced                                   : No
  253. Original source medium                   : Blu-ray
  254. Text #9
  255. ID                                       : 15
  256. ID in the original source medium         : 4615 (0x1207)
  257. Format                                   : PGS
  258. Muxing mode                              : zlib
  259. Codec ID                                 : S_HDMV/PGS
  260. Codec ID/Info                            : Picture based subtitle format used on BDs/HD-DVDs
  261. Duration                                 : 1 h 54 min
  262. Bit rate                                 : 29.3 kb/s
  263. Count of elements                        : 2413
  264. Stream size                              : 24.1 MiB (0%)
  265. Language                                 : Finnish
  266. Default                                  : No
  267. Forced                                   : No
  268. Original source medium                   : Blu-ray
  269. Text #10
  270. ID                                       : 16
  271. ID in the original source medium         : 4616 (0x1208)
  272. Format                                   : PGS
  273. Muxing mode                              : zlib
  274. Codec ID                                 : S_HDMV/PGS
  275. Codec ID/Info                            : Picture based subtitle format used on BDs/HD-DVDs
  276. Duration                                 : 1 h 54 min
  277. Bit rate                                 : 34.9 kb/s
  278. Count of elements                        : 2713
  279. Stream size                              : 28.6 MiB (0%)
  280. Language                                 : Norwegian
  281. Default                                  : No
  282. Forced                                   : No
  283. Original source medium                   : Blu-ray
  284. Text #11
  285. ID                                       : 17
  286. ID in the original source medium         : 4617 (0x1209)
  287. Format                                   : PGS
  288. Muxing mode                              : zlib
  289. Codec ID                                 : S_HDMV/PGS
  290. Codec ID/Info                            : Picture based subtitle format used on BDs/HD-DVDs
  291. Duration                                 : 1 h 54 min
  292. Bit rate                                 : 26.4 kb/s
  293. Count of elements                        : 1877
  294. Stream size                              : 21.7 MiB (0%)
  295. Language                                 : Swedish
  296. Default                                  : No
  297. Forced                                   : No
  298. Original source medium                   : Blu-ray
  299. Menu
  300. 00:00:00.000                             : en:Chapter 01
  301. 00:02:41.161                             : en:Chapter 02
  302. 00:06:30.681                             : en:Chapter 03
  303. 00:08:08.863                             : en:Chapter 04
  304. 00:11:03.746                             : en:Chapter 05
  305. 00:16:05.547                             : en:Chapter 06
  306. 00:17:22.458                             : en:Chapter 07
  307. 00:22:21.256                             : en:Chapter 08
  308. 00:29:08.121                             : en:Chapter 09
  309. 00:33:27.922                             : en:Chapter 10
  310. 00:37:55.189                             : en:Chapter 11
  311. 00:40:47.570                             : en:Chapter 12
  312. 00:50:48.336                             : en:Chapter 13
  313. 00:52:24.850                             : en:Chapter 14
  314. 00:56:48.154                             : en:Chapter 15
  315. 01:01:06.329                             : en:Chapter 16
  316. 01:05:51.238                             : en:Chapter 17
  317. 01:07:45.144                             : en:Chapter 18
  318. 01:08:51.127                             : en:Chapter 19
  319. 01:11:51.849                             : en:Chapter 20
  320. 01:14:59.453                             : en:Chapter 21
  321. 01:18:58.108                             : en:Chapter 22
  322. 01:22:11.426                             : en:Chapter 23
  323. 01:24:46.581                             : en:Chapter 24
  324. 01:31:39.911                             : en:Chapter 25
  325. 01:34:25.159                             : en:Chapter 26
  326. 01:38:24.481                             : en:Chapter 27
  327. 01:42:24.429                             : en:Chapter 28
  328. 01:44:11.912                             : en:Chapter 29
  329. 01:46:12.407                             : en:Chapter 30
  330. 01:51:33.687                             : en:Chapter 31
  331. 01:54:04.754                             : en:Chapter 32
  332. 01:55:22.540                             : en:Chapter 33
复制代码

美国X档案 American.History.X.1998.1080p.BluRay.REMUX.VC-1.DTS-HD.MA.7.1-FGT 27.97GB

美国X档案 American.History.X.1998.1080p.BluRay.REMUX.VC-1.DTS-HD.MA.7.1-FGT 27.97GB



4K321提示您 点击下方附件即可下载

美国X档案 American.History.X.1998.1080p.BluRay.REMUX.VC-1.DTS-HD.MA.7.1-FGT 27.97GB

American.History.X.1998.1080p.BluRay.REMUX.VC-1.DTS-HD.MA.7.1-FGT.torrent ( 35.63 KB )

回复

使用道具 举报

全部回复0 显示全部楼层

声明:您在社区发表的所有信息仅代表用户个人观点,与本网站立场无关,希望各位烧友理性发言,不发表违法国家法律禁止的话题。

您需要登录后才可以回帖 登录 | 立即注册

本版积分规则

联系客服 关注微信 下载APP 返回顶部 返回列表