开启左侧

[剧情片] 上帝之城 City.of.God.2002.PORTUGUESE.1080p.BluRay.REMUX.AVC.DTS-HD.MA.5.1-FGT 24.22GB

蓝鸟 发表于 2022-6-2 20:57:03 | 显示全部楼层 |阅读模式

上帝之城 City.of.God.2002.PORTUGUESE.1080p.BluRay.REMUX.AVC.DTS-HD.MA.5.1-FGT 24.22GB

上帝之城 City.of.God.2002.PORTUGUESE.1080p.BluRay.REMUX.AVC.DTS-HD.MA.5.1-FGT 24.22GB


译  名 上帝之城 / 无主之城 (港) / 无法无天 (台) / City of God
片  名 Cidade de Deus
年  代 2002
产  地 巴西 / 法国
类  别 剧情 / 犯罪
语  言 葡萄牙语
上映日期 2002-05-18(戛纳电影节) / 2002-08-30(巴西)
豆瓣评分 9.0/10 (275323人评价)
片  长 130分钟
导  演 费尔南多·梅里尔斯 Fernando Meirelles
       卡迪亚·兰德 Kátia Lund
编  剧 保罗·林斯 Paulo Lins
       布罗里欧·曼托伐尼 Bráulio Mantovani
演  员 亚历桑德雷·罗德里格斯 Alexandre Rodrigues
       莱安德鲁·菲尔米诺 Leandro Firmino
       菲利佩·哈根森 Phellipe Haagensen
       道格拉斯·席尔瓦 Douglas Silva
       乔纳森·哈根森 Jonathan Haagensen
       马修斯·纳克加勒 Matheus Nachtergaele
       塞乌·乔奇 Seu Jorge
       艾莉丝·布拉加 Alice Braga
       保罗·林斯 Paulo Lins
       Tulé Peak Tulé Peak
       巴布·桑塔纳 Babu Santana
       沃尔特·塞勒斯 Walter Salles
       Hank Levine Hank Levine
       唐纳德·蓝瓦德 Donald Ranvaud
       Elisa Tolomelli Elisa Tolomelli
       毛里西奥·安德雷德·拉莫斯 Mauricio Andrade Ramos
       安德里亚·巴拉塔·里贝罗 Andrea Barata Ribeiro
       安东尼奥·潘托 Antonio Pinto
       Ed Cortês Ed Cortês
       恺撒·查隆 César Charlone
       丹尼尔·雷森德 Daniel Rezende
       Tulé Peak Tulé Peak
       Bia Salgado Bia Salgado
       Inês Salgado Inês Salgado
       Anna Van Steen Anna Van Steen

简  介

巴西里约热内卢的贫民窟,这里是“上帝之城”,更是魔鬼也会叹息着转身的地方。                                       
                                    阿炮(Alexandre Rodrigues 饰)带着我们到了这里,他见证了这里二十多年来被残暴、贪婪、复仇、野心、背叛、掠夺所裹挟的混乱生活以及最终导致的一场灾难性的黑帮争斗。虽然从小就要 辗转于匪徒间求生存,但胆小怕事的性格与自我保护的本能却使他一直能平安度日。                                       
                                    60年代初,阿毛、阿夹和阿呆是这里的“少年三侠”,在抢劫完旅馆之后,他们三人分道扬镳,阿夹重回上帝的怀抱,而阿呆和阿毛纷纷付出了生命的代价。                                       
                                    70年,当年“少年三侠”手下的小弟小豆子(Douglas Silva 饰)靠着自己的心狠手辣,不停地吞并别人的地盘,成为了贫民区的“小霸王”,生意也从抢劫升级到了更为暴利的毒品买卖,和他一起飞黄腾达的还有班尼(Phellipe Haagensen 饰)。                                       
                                    班尼认识了美丽的安...


获奖情况 (共8项)

第76届奥斯卡金像奖 (2004)
  最佳导演(提名)
   └──费尔南多·梅里尔斯
  最佳改编剧本(提名)
   └──布罗里欧·曼托伐尼
  最佳摄影(提名)
   └──恺撒·查隆
  最佳剪辑(提名)
   └──丹尼尔·雷森德
  第60届金球奖 (2003)
  电影类 最佳外语片(提名)
  第56届英国电影学院奖 (2003)
  电影奖 最佳非英语片(提名)
  电影奖 最佳剪辑
   └──丹尼尔·雷森德
  第15届东京国际电影节 (2002)
  主竞赛单元 最佳影片(提名)
   └──费尔南多·梅里尔斯


影片参数
  1. Video
  2. ID                                       : 1
  3. ID in the original source medium         : 4113 (0x1011)
  4. Format                                   : AVC
  5. Format/Info                              : Advanced Video Codec
  6. Format profile                           : [email protected]
  7. Format settings                          : CABAC / 4 Ref Frames
  8. Format settings, CABAC                   : Yes
  9. Format settings, Reference frames        : 4 frames
  10. Codec ID                                 : V_MPEG4/ISO/AVC
  11. Duration                                 : 2 h 9 min
  12. Bit rate mode                            : Variable
  13. Bit rate                                 : 24.9 Mb/s
  14. Maximum bit rate                         : 35.0 Mb/s
  15. Width                                    : 1 920 pixels
  16. Height                                   : 1 080 pixels
  17. Display aspect ratio                     : 16:9
  18. Frame rate mode                          : Constant
  19. Frame rate                               : 23.976 (24000/1001/189150) FPS
  20. Standard                                 : NTSC
  21. Color space                              : YUV
  22. Chroma subsampling                       : 4:2:0
  23. Bit depth                                : 8 bits
  24. Scan type                                : Progressive
  25. Bits/(Pixel*Frame)                       : 0.502
  26. Stream size                              : 22.6 GiB (93%)
  27. Language                                 : English
  28. Default                                  : No
  29. Forced                                   : No
  30. Color range                              : Limited
  31. Color primaries                          : BT.709
  32. Transfer characteristics                 : BT.709
  33. Matrix coefficients                      : BT.709
  34. Original source medium                   : Blu-ray
  35. Audio
  36. ID                                       : 2
  37. Format                                   : DTS XLL
  38. Format/Info                              : Digital Theater Systems
  39. Commercial name                          : DTS-HD Master Audio
  40. Codec ID                                 : A_DTS
  41. Duration                                 : 2 h 9 min
  42. Bit rate mode                            : Variable
  43. Bit rate                                 : 1 782 kb/s
  44. Channel(s)                               : 6 channels
  45. Channel layout                           : C L R Ls Rs LFE
  46. Sampling rate                            : 48.0 kHz
  47. Frame rate                               : 93.750 FPS (512 SPF)
  48. Bit depth                                : 16 bits
  49. Compression mode                         : Lossless
  50. Stream size                              : 1.61 GiB (7%)
  51. Title                                    : DTS-HD MA 5.1
  52. Language                                 : Portuguese
  53. Default                                  : Yes
  54. Forced                                   : No
  55. Text #1
  56. ID                                       : 3
  57. Format                                   : UTF-8
  58. Codec ID                                 : S_TEXT/UTF8
  59. Codec ID/Info                            : UTF-8 Plain Text
  60. Duration                                 : 2 h 4 min
  61. Bit rate                                 : 52 b/s
  62. Count of elements                        : 1515
  63. Stream size                              : 48.3 KiB (0%)
  64. Language                                 : English
  65. Default                                  : No
  66. Forced                                   : No
  67. Text #2
  68. ID                                       : 4
  69. Format                                   : UTF-8
  70. Codec ID                                 : S_TEXT/UTF8
  71. Codec ID/Info                            : UTF-8 Plain Text
  72. Duration                                 : 2 h 4 min
  73. Bit rate                                 : 53 b/s
  74. Count of elements                        : 1577
  75. Stream size                              : 49.1 KiB (0%)
  76. Title                                    : SDH
  77. Language                                 : English
  78. Default                                  : No
  79. Forced                                   : No
  80. Text #3
  81. ID                                       : 5
  82. ID in the original source medium         : 4608 (0x1200)
  83. Format                                   : PGS
  84. Muxing mode                              : zlib
  85. Codec ID                                 : S_HDMV/PGS
  86. Codec ID/Info                            : Picture based subtitle format used on BDs/HD-DVDs
  87. Duration                                 : 2 h 4 min
  88. Bit rate                                 : 38.1 kb/s
  89. Count of elements                        : 3038
  90. Stream size                              : 33.9 MiB (0%)
  91. Language                                 : English
  92. Default                                  : No
  93. Forced                                   : No
  94. Original source medium                   : Blu-ray
  95. Text #4
  96. ID                                       : 6
  97. ID in the original source medium         : 4609 (0x1201)
  98. Format                                   : PGS
  99. Muxing mode                              : zlib
  100. Codec ID                                 : S_HDMV/PGS
  101. Codec ID/Info                            : Picture based subtitle format used on BDs/HD-DVDs
  102. Duration                                 : 2 h 4 min
  103. Bit rate                                 : 39.0 kb/s
  104. Count of elements                        : 3160
  105. Stream size                              : 34.7 MiB (0%)
  106. Language                                 : English
  107. Default                                  : No
  108. Forced                                   : No
  109. Original source medium                   : Blu-ray
  110. Menu
  111. 00:00:00.000                             : en:Chapter 01
  112. 00:01:04.689                             : en:Chapter 02
  113. 00:09:49.922                             : en:Chapter 03
  114. 00:17:27.880                             : en:Chapter 04
  115. 00:23:57.018                             : en:Chapter 05
  116. 00:29:00.488                             : en:Chapter 06
  117. 00:34:06.210                             : en:Chapter 07
  118. 00:36:02.618                             : en:Chapter 08
  119. 00:37:23.783                             : en:Chapter 09
  120. 00:44:34.171                             : en:Chapter 10
  121. 00:49:47.776                             : en:Chapter 11
  122. 00:55:14.936                             : en:Chapter 12
  123. 00:58:59.118                             : en:Chapter 13
  124. 01:04:36.831                             : en:Chapter 14
  125. 01:10:56.627                             : en:Chapter 15
  126. 01:19:40.692                             : en:Chapter 16
  127. 01:25:51.980                             : en:Chapter 17
  128. 01:31:43.372                             : en:Chapter 18
  129. 01:34:56.232                             : en:Chapter 19
  130. 01:39:03.520                             : en:Chapter 20
  131. 01:44:34.393                             : en:Chapter 21
  132. 01:49:39.739                             : en:Chapter 22
  133. 01:53:06.321                             : en:Chapter 23
  134. 01:57:35.089                             : en:Chapter 24
  135. 02:04:12.736                             : en:Chapter 25
复制代码



4K321提示您 点击下方附件即可下载

上帝之城 City.of.God.2002.PORTUGUESE.1080p.BluRay.REMUX.AVC.DTS-HD.MA.5.1-FGT 24.22GB

City.of.God.2002.PORTUGUESE.1080p.BluRay.REMUX.AVC.DTS-HD.MA.5.1-FGT.torrent ( 30.95 KB )

回复

使用道具 举报

全部回复0 显示全部楼层

声明:您在社区发表的所有信息仅代表用户个人观点,与本网站立场无关,希望各位烧友理性发言,不发表违法国家法律禁止的话题。

您需要登录后才可以回帖 登录 | 立即注册

本版积分规则

联系客服 关注微信 下载APP 返回顶部 返回列表