开启左侧

[剧情片] 低俗小说 Pulp.Fiction.1994.1080p.BluRay.REMUX.AVC.DTS-HD.MA.5.1-FGT 29.01GB

蓝鸟 发表于 2022-6-2 17:49:53 | 显示全部楼层 |阅读模式

低俗小说 Pulp.Fiction.1994.1080p.BluRay.REMUX.AVC.DTS-HD.MA.5.1-FGT 29.01GB

低俗小说 Pulp.Fiction.1994.1080p.BluRay.REMUX.AVC.DTS-HD.MA.5.1-FGT 29.01GB


译  名 低俗小说 / 危险人物(港) / 黑色追缉令(台) / 黑色追击令 / 低级趣味小说
片  名 Pulp Fiction
年  代 1994
产  地 美国
类  别 剧情 / 喜剧 / 犯罪
语  言 英语 / 西班牙语 / 法语
上映日期 1994-05-12(戛纳电影节) / 1994-10-14(美国)
豆瓣评分 8.9/10 (746695人评价)
片  长 154分钟
导  演 昆汀·塔伦蒂诺 Quentin Tarantino
编  剧 昆汀·塔伦蒂诺 Quentin Tarantino
       罗杰·阿夫瑞 Roger Avary
演  员 约翰·特拉沃尔塔 John Travolta
       乌玛·瑟曼 Uma Thurman
       阿曼达·普拉莫 Amanda Plummer
       蒂姆·罗斯 Tim Roth
       塞缪尔·杰克逊 Samuel L. Jackson
       菲尔·拉马 Phil LaMarr
       布鲁斯·威利斯 Bruce Willis
       弗兰克·威利 Frank Whaley
       布尔·斯蒂尔斯 Burr Steers
       文·瑞姆斯 Ving Rhames
       劳拉·拉芙蕾丝 Laura Lovelace
       保罗·考尔德伦 Paul Calderon
       布罗娜·加拉赫 Bronagh Gallagher
       罗姗娜·阿奎特 Rosanna Arquette
       埃里克·斯托尔兹 Eric Stoltz
       玛丽亚·德·梅黛洛 Maria de Medeiros
       昆汀·塔伦蒂诺 Quentin Tarantino
       史蒂夫·布西密 Steve Buscemi
       克里斯托弗·沃肯 Christopher Walken
       哈威·凯特尔 Harvey Keitel
       彼得·格林纳 Peter Greene
       安琪拉·琼斯 Angela Jones
       阿尼·萨瓦 Ani Sava
       Stephen Hibbert Stephen Hibbert
       鲍伯·韦恩斯坦 Bob Weinstein
       迈克尔·山姆伯格 Michael Shamberg
       斯黛西·谢尔 Stacey Sher
       萨利·门克 Sally Menke
       Ronnie Yeskel Ronnie Yeskel
       Gary M. Zuckerbrod Gary M. Zuckerbrod
       大卫·维斯克 David Wasco
       桑迪·雷诺兹-瓦斯科 Sandy Reynolds-Wasco
       贝奇·海曼 Betsy Heimann
       霍华德·伯杰 Howard Berger
       米歇尔·布勒 Michelle Bühler
       Wayne Toth Wayne Toth
       道格拉斯·诺亚 Douglas Noe
       Audree Futterman Audree Futterman
       Linda Arnold Linda Arnold

简  介

《低俗小说》由“文森特和马沙的妻子”、“金表”、“邦妮的处境”三个故事以及影片首尾的序幕和尾声五个部分组成。看似独立的小故事里面,却又有环环相扣的人和事。                                       
                                    盗贼“小南瓜”和“小兔子”在早餐店里打劫,却遇上了天大的麻烦——黑社会成员朱尔斯(塞缪尔?杰克逊Samuel L. Jackson饰)和文森特(约翰?特拉沃尔塔John Travolta饰)在店内用餐,可谓天外有天。二人是否会放过两名小盗贼?                                       
                                    而文森特是黑社会大哥马沙?华莱士(文?瑞姆斯Ving Rhames饰)的手下,马沙下命令让他陪妻子一个晚上,明知如有雷池必死无疑,但面对马沙妻子美艳诱惑,文森特该怎么办。                                       
                                    文森特的故事还没完,拳击手布奇(布鲁斯?威利斯Bruce Willis饰)的出现将令他的人生从此改变。布奇有一块祖传金表,就是因为这块金表,他和马沙分享了一个耻辱的秘密。                                       
                                    故事环状结构,回...


获奖情况 (共24项)

第67届奥斯卡金像奖 (1995)
  最佳影片(提名)
   └──劳伦斯·班德
  最佳导演(提名)
   └──昆汀·塔伦蒂诺
  最佳男主角(提名)
   └──约翰·特拉沃尔塔
  最佳男配角(提名)
   └──塞缪尔·杰克逊
  最佳女配角(提名)
   └──乌玛·瑟曼
  最佳原创剧本
  最佳剪辑(提名)
   └──萨利·门克
  第47届戛纳电影节 (1994)
  主竞赛单元 金棕榈奖
   └──昆汀·塔伦蒂诺
  第52届金球奖 (1995)
  电影类 最佳剧情片(提名)
  电影类 最佳导演(提名)
   └──昆汀·塔伦蒂诺
  电影类 剧情片最佳男主角(提名)
   └──约翰·特拉沃尔塔
  电影类 最佳男配角(提名)
   └──塞缪尔·杰克逊
  电影类 最佳女配角(提名)
   └──乌玛·瑟曼
  电影类 最佳编剧
   └──昆汀·塔伦蒂诺
  第48届英国电影学院奖 (1995)
  电影奖 最佳影片(提名)
   └──劳伦斯·班德
  电影奖 最佳导演(提名)
   └──昆汀·塔伦蒂诺
  电影奖 最佳男主角(提名)
   └──约翰·特拉沃尔塔
  电影奖 最佳女主角(提名)
   └──乌玛·瑟曼
  电影奖 最佳男配角
   └──塞缪尔·杰克逊
  电影奖 最佳原创剧本
  电影奖 最佳摄影(提名)
   └──安德列·塞库拉
  电影奖 最佳剪辑(提名)
   └──萨利·门克
  电影奖 最佳音效(提名)
  第18届日本电影学院奖 (1995)
  最佳外语片(提名)


影片参数
  1. Video
  2. ID                                       : 1
  3. ID in the original source medium         : 4113 (0x1011)
  4. Format                                   : AVC
  5. Format/Info                              : Advanced Video Codec
  6. Format profile                           : [email protected]
  7. Format settings                          : CABAC / 4 Ref Frames
  8. Format settings, CABAC                   : Yes
  9. Format settings, Reference frames        : 4 frames
  10. Codec ID                                 : V_MPEG4/ISO/AVC
  11. Duration                                 : 2 h 34 min
  12. Bit rate mode                            : Variable
  13. Bit rate                                 : 22.9 Mb/s
  14. Maximum bit rate                         : 37.0 Mb/s
  15. Width                                    : 1 920 pixels
  16. Height                                   : 1 080 pixels
  17. Display aspect ratio                     : 16:9
  18. Frame rate mode                          : Constant
  19. Frame rate                               : 23.976 (24000/1001/189150) FPS
  20. Color space                              : YUV
  21. Chroma subsampling                       : 4:2:0
  22. Bit depth                                : 8 bits
  23. Scan type                                : Progressive
  24. Bits/(Pixel*Frame)                       : 0.461
  25. Stream size                              : 24.7 GiB (85%)
  26. Language                                 : English
  27. Default                                  : No
  28. Forced                                   : No
  29. Original source medium                   : Blu-ray
  30. Audio
  31. ID                                       : 2
  32. ID in the original source medium         : 4352 (0x1100)
  33. Format                                   : DTS XLL
  34. Format/Info                              : Digital Theater Systems
  35. Commercial name                          : DTS-HD Master Audio
  36. Codec ID                                 : A_DTS
  37. Duration                                 : 2 h 34 min
  38. Bit rate mode                            : Variable
  39. Bit rate                                 : 3 898 kb/s
  40. Channel(s)                               : 6 channels
  41. Channel layout                           : C L R Ls Rs LFE
  42. Sampling rate                            : 48.0 kHz
  43. Frame rate                               : 93.750 FPS (512 SPF)
  44. Bit depth                                : 24 bits
  45. Compression mode                         : Lossless
  46. Stream size                              : 4.20 GiB (14%)
  47. Title                                    : DTS-HD MA 5.1
  48. Language                                 : English
  49. Default                                  : Yes
  50. Forced                                   : No
  51. Original source medium                   : Blu-ray
  52. Text #1
  53. ID                                       : 3
  54. Format                                   : UTF-8
  55. Codec ID                                 : S_TEXT/UTF8
  56. Codec ID/Info                            : UTF-8 Plain Text
  57. Duration                                 : 2 h 28 min
  58. Bit rate                                 : 77 b/s
  59. Count of elements                        : 2043
  60. Stream size                              : 84.4 KiB (0%)
  61. Language                                 : English
  62. Default                                  : Yes
  63. Forced                                   : No
  64. Text #2
  65. ID                                       : 4
  66. Format                                   : UTF-8
  67. Codec ID                                 : S_TEXT/UTF8
  68. Codec ID/Info                            : UTF-8 Plain Text
  69. Duration                                 : 2 h 28 min
  70. Bit rate                                 : 82 b/s
  71. Count of elements                        : 2189
  72. Stream size                              : 90.3 KiB (0%)
  73. Title                                    : SDH
  74. Language                                 : English
  75. Default                                  : No
  76. Forced                                   : No
  77. Text #3
  78. ID                                       : 5
  79. ID in the original source medium         : 4608 (0x1200)
  80. Format                                   : PGS
  81. Muxing mode                              : zlib
  82. Codec ID                                 : S_HDMV/PGS
  83. Codec ID/Info                            : Picture based subtitle format used on BDs/HD-DVDs
  84. Duration                                 : 2 h 28 min
  85. Bit rate                                 : 71.0 kb/s
  86. Count of elements                        : 4090
  87. Stream size                              : 75.5 MiB (0%)
  88. Language                                 : English
  89. Default                                  : No
  90. Forced                                   : No
  91. Original source medium                   : Blu-ray
  92. Text #4
  93. ID                                       : 6
  94. ID in the original source medium         : 4609 (0x1201)
  95. Format                                   : PGS
  96. Muxing mode                              : zlib
  97. Codec ID                                 : S_HDMV/PGS
  98. Codec ID/Info                            : Picture based subtitle format used on BDs/HD-DVDs
  99. Duration                                 : 2 h 28 min
  100. Bit rate                                 : 78.2 kb/s
  101. Count of elements                        : 4388
  102. Stream size                              : 83.3 MiB (0%)
  103. Language                                 : English
  104. Default                                  : No
  105. Forced                                   : No
  106. Original source medium                   : Blu-ray
  107. Text #5
  108. ID                                       : 7
  109. ID in the original source medium         : 4610 (0x1202)
  110. Format                                   : PGS
  111. Muxing mode                              : zlib
  112. Codec ID                                 : S_HDMV/PGS
  113. Codec ID/Info                            : Picture based subtitle format used on BDs/HD-DVDs
  114. Duration                                 : 2 h 28 min
  115. Bit rate                                 : 54.8 kb/s
  116. Count of elements                        : 3730
  117. Stream size                              : 58.4 MiB (0%)
  118. Language                                 : Spanish
  119. Default                                  : No
  120. Forced                                   : No
  121. Original source medium                   : Blu-ray
  122. Text #6
  123. ID                                       : 8
  124. ID in the original source medium         : 4611 (0x1203)
  125. Format                                   : PGS
  126. Muxing mode                              : zlib
  127. Codec ID                                 : S_HDMV/PGS
  128. Codec ID/Info                            : Picture based subtitle format used on BDs/HD-DVDs
  129. Duration                                 : 2 h 29 min
  130. Bit rate                                 : 51.3 kb/s
  131. Count of elements                        : 2035
  132. Stream size                              : 54.8 MiB (0%)
  133. Language                                 : English
  134. Default                                  : No
  135. Forced                                   : No
  136. Original source medium                   : Blu-ray
  137. Menu
  138. 00:00:00.000                             : en:Chapter 01
  139. 00:07:05.842                             : en:Chapter 02
  140. 00:14:25.406                             : en:Chapter 03
  141. 00:21:08.475                             : en:Chapter 04
  142. 00:31:21.671                             : en:Chapter 05
  143. 00:34:11.758                             : en:Chapter 06
  144. 00:49:56.994                             : en:Chapter 07
  145. 00:54:49.286                             : en:Chapter 08
  146. 01:03:31.599                             : en:Chapter 09
  147. 01:14:53.071                             : en:Chapter 10
  148. 01:22:38.745                             : en:Chapter 11
  149. 01:33:53.336                             : en:Chapter 12
  150. 01:37:40.271                             : en:Chapter 13
  151. 01:49:15.799                             : en:Chapter 14
  152. 01:55:11.404                             : en:Chapter 15
  153. 02:13:21.868                             : en:Chapter 16
复制代码

低俗小说 Pulp.Fiction.1994.1080p.BluRay.REMUX.AVC.DTS-HD.MA.5.1-FGT 29.01GB

低俗小说 Pulp.Fiction.1994.1080p.BluRay.REMUX.AVC.DTS-HD.MA.5.1-FGT 29.01GB



4K321提示您 点击下方附件即可下载

低俗小说 Pulp.Fiction.1994.1080p.BluRay.REMUX.AVC.DTS-HD.MA.5.1-FGT 29.01GB

Pulp.Fiction.1994.1080p.BluRay.REMUX.AVC.DTS-HD.MA.5.1-FGT.torrent ( 36.9 KB )

回复

使用道具 举报

全部回复0 显示全部楼层

声明:您在社区发表的所有信息仅代表用户个人观点,与本网站立场无关,希望各位烧友理性发言,不发表违法国家法律禁止的话题。

您需要登录后才可以回帖 登录 | 立即注册

本版积分规则

联系客服 关注微信 下载APP 返回顶部 返回列表