开启左侧

[剧情片] 阿甘正传 Forrest.Gump.1994.REMASTERED.1080p.BluRay.REMUX.AVC.DTS-HD.MA.TrueHD.7.1.Atmos-FGT 38.75GB

蓝鸟 发表于 2022-6-2 17:49:26 | 显示全部楼层 |阅读模式

阿甘正传 Forrest.Gump.1994.REMASTERED.1080p.BluRay.REMUX.AVC.DTS-HD.MA.TrueHD.7.1.Atmos-FGT 38.75GB ...

阿甘正传 Forrest.Gump.1994.REMASTERED.1080p.BluRay.REMUX.AVC.DTS-HD.MA.TrueHD.7.1.Atmos-FGT 38.75GB ...


译  名 阿甘正传 / 福雷斯特·冈普
片  名 Forrest Gump
年  代 1994
产  地 美国
类  别 剧情 / 爱情
语  言 英语
上映日期 1994-06-23(洛杉矶首映) / 1994-07-06(美国)
豆瓣评分 9.5/10 (1949519人评价)
片  长 142分钟
导  演 罗伯特·泽米吉斯 Robert Zemeckis
编  剧 艾瑞克·罗斯 Eric Roth
       温斯顿·格鲁姆 Winston Groom
演  员 汤姆·汉克斯 Tom Hanks
       罗宾·怀特 Robin Wright
       加里·西尼斯 Gary Sinise
       麦凯尔泰·威廉逊 Mykelti Williamson
       莎莉·菲尔德 Sally Field
       海利·乔·奥斯蒙 Haley Joel Osment
       迈克尔·康纳·亨弗里斯 Michael Conner Humphreys
       哈罗德·G·赫瑟姆 Harold G. Herthum
       山姆·安德森 Sam Anderson
       伊俄涅·M·特雷奇 Ione M. Telech
       彼得·道博森 Peter Dobson
       希博汗·法隆 Siobhan Fallon
       伊丽莎白·汉克斯 Elizabeth Hanks
       汉娜·豪尔 Hanna Hall
       克里斯托弗·琼斯 Christopher Jones
       罗布·兰德里 Rob Landry
       杰森·麦克奎尔 Jason McGuire
       桑尼·施罗耶 Sonny Shroyer
       艾德·戴维斯 Ed Davis
       丹尼尔C.斯瑞派克 Daniel C. Striepeke
       大卫·布里斯宾 David Brisbin
       德博拉·麦克蒂尔 Deborah McTeer
       艾尔·哈林顿 Al Harrington
       阿非莫·奥米拉 Afemo Omilami
       约翰·沃德斯塔德 John Voldstad
       迈克尔·伯吉斯 Michael Burgess
       埃里克·安德伍德 Eric Underwood
       拜伦·明斯 Byron Minns
       斯蒂芬·布吉格沃特 Stephen Bridgewater
       约翰·威廉·高尔特 John William Galt
       希拉里·沙普兰 Hilary Chaplain
       伊莎贝尔·罗斯 Isabel Rose
       理查德·达历山德罗 Richard D''Alessandro
       迪克·史迪威 Dick Stilwell
       迈克尔-杰斯 Michael Jace
       杰弗里·布莱克 Geoffrey Blake
       瓦妮莎·罗斯 Vanessa Roth
       迪克·卡维特 Dick Cavett
       马拉·苏查雷特扎 Marla Sucharetza
       乔·阿拉斯奇 Joe Alaskey
       W·本森·泰瑞 W. Benson Terry
       约翰·列侬 John Lennon
       埃尔维斯·普雷斯利 Elvis Presley
       罗纳德·里根 Ronald Reagan
       鲍勃·霍普 Bob Hope
       约翰·肯尼迪 John F. Kennedy
       理查德·尼克松 Richard Nixon
       吴俊全 Junquan Wu
       蒂莫西·麦克尼尔 Timothy McNeil
       杰拉尔德·福特 Gerald Ford
       布雷特·赖斯 Brett Rice
       亚伦·史维斯查 Alan Silvestri
       唐·伯吉斯 Don Burgess
       江道格 Doug Chiang
       斯蒂芬·罗森包姆 Stephen Rosenbaum
       肯·拉斯顿 Ken Ralston

简  介

阿甘(汤姆·汉克斯 饰)于二战结束后不久出生在美国南方阿拉巴马州一个闭塞的小镇,他先天弱智,智商只有75,然而他的妈妈是一个性格坚强的女性,她常常鼓励阿甘“傻人有傻福”,要他自强不息。                                    
                                阿甘像普通孩子一样上学,并且认识了一生的朋友和至爱珍妮(罗宾·莱特·潘 饰),在珍妮 和妈妈的爱护下,阿甘凭着上帝赐予的“飞毛腿”开始了一生不停的奔跑。                                    
                                阿甘成为橄榄球巨星、越战英雄、乒乓球外交使者、亿万富翁,但是,他始终忘不了珍妮,几次匆匆的相聚和离别,更是加深了阿甘的思念。                                    
                                有一天,阿甘收到珍妮的信,他们终于又要见面……


获奖情况 (共30项)

第67届奥斯卡金像奖 (1995)
  最佳影片
  最佳导演
   └──罗伯特·泽米吉斯
  最佳男主角
   └──汤姆·汉克斯
  最佳男配角(提名)
   └──加里·西尼斯
  最佳改编剧本
   └──艾瑞克·罗斯
  最佳摄影(提名)
   └──唐·伯吉斯
  最佳剪辑
   └──阿瑟·施密特
  最佳视觉效果
  最佳音效剪辑(提名)
  最佳音响(提名)
  最佳艺术指导(提名)
  最佳化妆(提名)
  最佳原创配乐(提名)
   └──亚伦·史维斯查
  第52届金球奖 (1995)
  电影类 最佳剧情片
  电影类 最佳导演
   └──罗伯特·泽米吉斯
  电影类 剧情片最佳男主角
   └──汤姆·汉克斯
  电影类 最佳男配角(提名)
   └──加里·西尼斯
  电影类 最佳女配角(提名)
   └──罗宾·怀特
  电影类 最佳编剧(提名)
   └──艾瑞克·罗斯
  电影类 最佳原创配乐(提名)
   └──亚伦·史维斯查
  第48届英国电影学院奖 (1995)
  电影奖 最佳影片(提名)
  电影奖 最佳导演(提名)
   └──罗伯特·泽米吉斯
  电影奖 最佳男主角(提名)
   └──汤姆·汉克斯
  电影奖 最佳女配角(提名)
   └──莎莉·菲尔德
  电影奖 最佳改编剧本(提名)
   └──艾瑞克·罗斯
  电影奖 最佳摄影(提名)
   └──唐·伯吉斯
  电影奖 最佳剪辑(提名)
   └──阿瑟·施密特
  电影奖 最佳特殊视觉效果
  第19届日本电影学院奖 (1996)
  最佳外语片(提名)
  第16届中国电影金鸡奖 (1996)
  最佳外国影片译制奖


影片参数
  1. Video
  2. ID                                       : 1
  3. ID in the original source medium         : 4113 (0x1011)
  4. Format                                   : AVC
  5. Format/Info                              : Advanced Video Codec
  6. Format profile                           : [email protected]
  7. Format settings                          : CABAC / 4 Ref Frames
  8. Format settings, CABAC                   : Yes
  9. Format settings, Reference frames        : 4 frames
  10. Codec ID                                 : V_MPEG4/ISO/AVC
  11. Duration                                 : 2 h 22 min
  12. Bit rate mode                            : Variable
  13. Bit rate                                 : 24.9 Mb/s
  14. Maximum bit rate                         : 27.5 Mb/s
  15. Width                                    : 1 920 pixels
  16. Height                                   : 1 080 pixels
  17. Display aspect ratio                     : 16:9
  18. Frame rate mode                          : Constant
  19. Frame rate                               : 23.976 (24000/1001/189150) FPS
  20. Color space                              : YUV
  21. Chroma subsampling                       : 4:2:0
  22. Bit depth                                : 8 bits
  23. Scan type                                : Progressive
  24. Bits/(Pixel*Frame)                       : 0.500
  25. Stream size                              : 24.7 GiB (64%)
  26. Language                                 : English
  27. Default                                  : No
  28. Forced                                   : No
  29. Original source medium                   : Blu-ray
  30. Audio #1
  31. ID                                       : 2
  32. ID in the original source medium         : 4352 (0x1100)
  33. Format                                   : MLP FBA 16-ch
  34. Format/Info                              : Meridian Lossless Packing FBA with 16-channel presentation
  35. Commercial name                          : Dolby TrueHD with Dolby Atmos
  36. Codec ID                                 : A_TRUEHD
  37. Duration                                 : 2 h 22 min
  38. Bit rate mode                            : Variable
  39. Bit rate                                 : 4 271 kb/s
  40. Maximum bit rate                         : 7 926 kb/s
  41. Channel(s)                               : 8 channels
  42. Channel layout                           : L R C LFE Ls Rs Lb Rb
  43. Sampling rate                            : 48.0 kHz
  44. Frame rate                               : 1 200.000 FPS (40 SPF)
  45. Bit depth                                : 24 bits
  46. Compression mode                         : Lossless
  47. Stream size                              : 4.24 GiB (11%)
  48. Title                                    : TrueHD 7.1 Atmos
  49. Language                                 : English
  50. Default                                  : Yes
  51. Forced                                   : No
  52. Original source medium                   : Blu-ray
  53. Number of dynamic objects                : 11
  54. Bed channel count                        : 1 channel
  55. Bed channel configuration                : LFE
  56. Audio #2
  57. ID                                       : 3
  58. Format                                   : DTS XLL
  59. Format/Info                              : Digital Theater Systems
  60. Commercial name                          : DTS-HD Master Audio
  61. Codec ID                                 : A_DTS
  62. Duration                                 : 2 h 22 min
  63. Bit rate mode                            : Variable
  64. Bit rate                                 : 3 523 kb/s
  65. Channel(s)                               : 8 channels
  66. Channel layout                           : C L R LFE Lb Rb Lss Rss
  67. Sampling rate                            : 48.0 kHz
  68. Frame rate                               : 93.750 FPS (512 SPF)
  69. Bit depth                                : 24 bits
  70. Compression mode                         : Lossless
  71. Stream size                              : 3.50 GiB (9%)
  72. Title                                    : DTS-HD MA 7.1
  73. Language                                 : English
  74. Default                                  : No
  75. Forced                                   : No
  76. Audio #3
  77. ID                                       : 4
  78. ID in the original source medium         : 4352 (0x1100)
  79. Format                                   : AC-3
  80. Format/Info                              : Audio Coding 3
  81. Commercial name                          : Dolby Digital
  82. Codec ID                                 : A_AC3
  83. Duration                                 : 2 h 22 min
  84. Bit rate mode                            : Constant
  85. Bit rate                                 : 640 kb/s
  86. Channel(s)                               : 6 channels
  87. Channel layout                           : L R C LFE Ls Rs
  88. Sampling rate                            : 48.0 kHz
  89. Frame rate                               : 31.250 FPS (1536 SPF)
  90. Compression mode                         : Lossy
  91. Stream size                              : 650 MiB (2%)
  92. Title                                    : DD 5.1
  93. Language                                 : English
  94. Service kind                             : Complete Main
  95. Default                                  : No
  96. Forced                                   : No
  97. Original source medium                   : Blu-ray
  98. Audio #4
  99. ID                                       : 5
  100. ID in the original source medium         : 4353 (0x1101)
  101. Format                                   : AC-3
  102. Format/Info                              : Audio Coding 3
  103. Commercial name                          : Dolby Digital
  104. Codec ID                                 : A_AC3
  105. Duration                                 : 2 h 22 min
  106. Bit rate mode                            : Constant
  107. Bit rate                                 : 640 kb/s
  108. Channel(s)                               : 6 channels
  109. Channel layout                           : L R C LFE Ls Rs
  110. Sampling rate                            : 48.0 kHz
  111. Frame rate                               : 31.250 FPS (1536 SPF)
  112. Compression mode                         : Lossy
  113. Stream size                              : 650 MiB (2%)
  114. Title                                    : DD 5.1
  115. Language                                 : English
  116. Service kind                             : Complete Main
  117. Default                                  : No
  118. Forced                                   : No
  119. Original source medium                   : Blu-ray
  120. Audio #5
  121. ID                                       : 6
  122. ID in the original source medium         : 4354 (0x1102)
  123. Format                                   : AC-3
  124. Format/Info                              : Audio Coding 3
  125. Commercial name                          : Dolby Digital
  126. Codec ID                                 : A_AC3
  127. Duration                                 : 2 h 22 min
  128. Bit rate mode                            : Constant
  129. Bit rate                                 : 640 kb/s
  130. Channel(s)                               : 6 channels
  131. Channel layout                           : L R C LFE Ls Rs
  132. Sampling rate                            : 48.0 kHz
  133. Frame rate                               : 31.250 FPS (1536 SPF)
  134. Compression mode                         : Lossy
  135. Stream size                              : 650 MiB (2%)
  136. Title                                    : DD 5.1
  137. Language                                 : English
  138. Service kind                             : Complete Main
  139. Default                                  : No
  140. Forced                                   : No
  141. Original source medium                   : Blu-ray
  142. Audio #6
  143. ID                                       : 7
  144. ID in the original source medium         : 4355 (0x1103)
  145. Format                                   : AC-3
  146. Format/Info                              : Audio Coding 3
  147. Commercial name                          : Dolby Digital
  148. Codec ID                                 : A_AC3
  149. Duration                                 : 2 h 22 min
  150. Bit rate mode                            : Constant
  151. Bit rate                                 : 640 kb/s
  152. Channel(s)                               : 6 channels
  153. Channel layout                           : L R C LFE Ls Rs
  154. Sampling rate                            : 48.0 kHz
  155. Frame rate                               : 31.250 FPS (1536 SPF)
  156. Compression mode                         : Lossy
  157. Stream size                              : 650 MiB (2%)
  158. Title                                    : DD 5.1
  159. Language                                 : German
  160. Service kind                             : Complete Main
  161. Default                                  : No
  162. Forced                                   : No
  163. Original source medium                   : Blu-ray
  164. Audio #7
  165. ID                                       : 8
  166. ID in the original source medium         : 4356 (0x1104)
  167. Format                                   : AC-3
  168. Format/Info                              : Audio Coding 3
  169. Commercial name                          : Dolby Digital
  170. Codec ID                                 : A_AC3
  171. Duration                                 : 2 h 22 min
  172. Bit rate mode                            : Constant
  173. Bit rate                                 : 640 kb/s
  174. Channel(s)                               : 6 channels
  175. Channel layout                           : L R C LFE Ls Rs
  176. Sampling rate                            : 48.0 kHz
  177. Frame rate                               : 31.250 FPS (1536 SPF)
  178. Compression mode                         : Lossy
  179. Stream size                              : 650 MiB (2%)
  180. Title                                    : DD 5.1
  181. Language                                 : Spanish
  182. Service kind                             : Complete Main
  183. Default                                  : No
  184. Forced                                   : No
  185. Original source medium                   : Blu-ray
  186. Audio #8
  187. ID                                       : 9
  188. ID in the original source medium         : 4357 (0x1105)
  189. Format                                   : AC-3
  190. Format/Info                              : Audio Coding 3
  191. Commercial name                          : Dolby Digital
  192. Codec ID                                 : A_AC3
  193. Duration                                 : 2 h 22 min
  194. Bit rate mode                            : Constant
  195. Bit rate                                 : 640 kb/s
  196. Channel(s)                               : 6 channels
  197. Channel layout                           : L R C LFE Ls Rs
  198. Sampling rate                            : 48.0 kHz
  199. Frame rate                               : 31.250 FPS (1536 SPF)
  200. Compression mode                         : Lossy
  201. Stream size                              : 650 MiB (2%)
  202. Title                                    : DD 5.1
  203. Language                                 : Spanish
  204. Service kind                             : Complete Main
  205. Default                                  : No
  206. Forced                                   : No
  207. Original source medium                   : Blu-ray
  208. Audio #9
  209. ID                                       : 10
  210. ID in the original source medium         : 4358 (0x1106)
  211. Format                                   : AC-3
  212. Format/Info                              : Audio Coding 3
  213. Commercial name                          : Dolby Digital
  214. Codec ID                                 : A_AC3
  215. Duration                                 : 2 h 22 min
  216. Bit rate mode                            : Constant
  217. Bit rate                                 : 640 kb/s
  218. Channel(s)                               : 6 channels
  219. Channel layout                           : L R C LFE Ls Rs
  220. Sampling rate                            : 48.0 kHz
  221. Frame rate                               : 31.250 FPS (1536 SPF)
  222. Compression mode                         : Lossy
  223. Stream size                              : 650 MiB (2%)
  224. Title                                    : DD 5.1
  225. Language                                 : French
  226. Service kind                             : Complete Main
  227. Default                                  : No
  228. Forced                                   : No
  229. Original source medium                   : Blu-ray
  230. Audio #10
  231. ID                                       : 11
  232. ID in the original source medium         : 4359 (0x1107)
  233. Format                                   : AC-3
  234. Format/Info                              : Audio Coding 3
  235. Commercial name                          : Dolby Digital
  236. Codec ID                                 : A_AC3
  237. Duration                                 : 2 h 22 min
  238. Bit rate mode                            : Constant
  239. Bit rate                                 : 640 kb/s
  240. Channel(s)                               : 6 channels
  241. Channel layout                           : L R C LFE Ls Rs
  242. Sampling rate                            : 48.0 kHz
  243. Frame rate                               : 31.250 FPS (1536 SPF)
  244. Compression mode                         : Lossy
  245. Stream size                              : 650 MiB (2%)
  246. Title                                    : DD 5.1
  247. Language                                 : Italian
  248. Service kind                             : Complete Main
  249. Default                                  : No
  250. Forced                                   : No
  251. Original source medium                   : Blu-ray
  252. Audio #11
  253. ID                                       : 12
  254. ID in the original source medium         : 4360 (0x1108)
  255. Format                                   : AC-3
  256. Format/Info                              : Audio Coding 3
  257. Commercial name                          : Dolby Digital
  258. Format settings                          : Dolby Surround
  259. Codec ID                                 : A_AC3
  260. Duration                                 : 2 h 22 min
  261. Bit rate mode                            : Constant
  262. Bit rate                                 : 224 kb/s
  263. Channel(s)                               : 2 channels
  264. Channel layout                           : L R
  265. Sampling rate                            : 48.0 kHz
  266. Frame rate                               : 31.250 FPS (1536 SPF)
  267. Compression mode                         : Lossy
  268. Stream size                              : 228 MiB (0%)
  269. Title                                    : DD 2.0
  270. Language                                 : Japanese
  271. Service kind                             : Complete Main
  272. Default                                  : No
  273. Forced                                   : No
  274. Original source medium                   : Blu-ray
  275. Audio #12
  276. ID                                       : 13
  277. ID in the original source medium         : 4361 (0x1109)
  278. Format                                   : AC-3
  279. Format/Info                              : Audio Coding 3
  280. Commercial name                          : Dolby Digital
  281. Codec ID                                 : A_AC3
  282. Duration                                 : 2 h 22 min
  283. Bit rate mode                            : Constant
  284. Bit rate                                 : 224 kb/s
  285. Channel(s)                               : 2 channels
  286. Channel layout                           : L R
  287. Sampling rate                            : 48.0 kHz
  288. Frame rate                               : 31.250 FPS (1536 SPF)
  289. Compression mode                         : Lossy
  290. Stream size                              : 228 MiB (0%)
  291. Title                                    : DD 2.0
  292. Language                                 : Portuguese
  293. Service kind                             : Complete Main
  294. Default                                  : No
  295. Forced                                   : No
  296. Original source medium                   : Blu-ray
  297. Audio #13
  298. ID                                       : 14
  299. ID in the original source medium         : 4362 (0x110A)
  300. Format                                   : AC-3
  301. Format/Info                              : Audio Coding 3
  302. Commercial name                          : Dolby Digital
  303. Format settings                          : Dolby Surround
  304. Codec ID                                 : A_AC3
  305. Duration                                 : 2 h 22 min
  306. Bit rate mode                            : Constant
  307. Bit rate                                 : 224 kb/s
  308. Channel(s)                               : 2 channels
  309. Channel layout                           : L R
  310. Sampling rate                            : 48.0 kHz
  311. Frame rate                               : 31.250 FPS (1536 SPF)
  312. Compression mode                         : Lossy
  313. Stream size                              : 228 MiB (0%)
  314. Title                                    : DD 2.0
  315. Language                                 : English
  316. Service kind                             : Complete Main
  317. Default                                  : No
  318. Forced                                   : No
  319. Original source medium                   : Blu-ray
  320. Audio #14
  321. ID                                       : 15
  322. ID in the original source medium         : 4363 (0x110B)
  323. Format                                   : AC-3
  324. Format/Info                              : Audio Coding 3
  325. Commercial name                          : Dolby Digital
  326. Format settings                          : Dolby Surround
  327. Codec ID                                 : A_AC3
  328. Duration                                 : 2 h 22 min
  329. Bit rate mode                            : Constant
  330. Bit rate                                 : 224 kb/s
  331. Channel(s)                               : 2 channels
  332. Channel layout                           : L R
  333. Sampling rate                            : 48.0 kHz
  334. Frame rate                               : 31.250 FPS (1536 SPF)
  335. Compression mode                         : Lossy
  336. Stream size                              : 228 MiB (0%)
  337. Title                                    : DD 2.0
  338. Language                                 : English
  339. Service kind                             : Complete Main
  340. Default                                  : No
  341. Forced                                   : No
  342. Original source medium                   : Blu-ray
  343. Text #1
  344. ID                                       : 16
  345. Format                                   : UTF-8
  346. Codec ID                                 : S_TEXT/UTF8
  347. Codec ID/Info                            : UTF-8 Plain Text
  348. Duration                                 : 2 h 10 min
  349. Bit rate                                 : 61 b/s
  350. Count of elements                        : 1544
  351. Stream size                              : 58.6 KiB (0%)
  352. Language                                 : English
  353. Default                                  : Yes
  354. Forced                                   : No
  355. Text #2
  356. ID                                       : 17
  357. Format                                   : UTF-8
  358. Codec ID                                 : S_TEXT/UTF8
  359. Codec ID/Info                            : UTF-8 Plain Text
  360. Duration                                 : 2 h 11 min
  361. Bit rate                                 : 61 b/s
  362. Count of elements                        : 1589
  363. Stream size                              : 59.4 KiB (0%)
  364. Title                                    : SDH
  365. Language                                 : English
  366. Default                                  : No
  367. Forced                                   : No
  368. Text #3
  369. ID                                       : 18
  370. ID in the original source medium         : 4608 (0x1200)
  371. Format                                   : PGS
  372. Muxing mode                              : zlib
  373. Codec ID                                 : S_HDMV/PGS
  374. Codec ID/Info                            : Picture based subtitle format used on BDs/HD-DVDs
  375. Duration                                 : 2 h 10 min
  376. Bit rate                                 : 39.0 kb/s
  377. Count of elements                        : 3084
  378. Stream size                              : 36.5 MiB (0%)
  379. Language                                 : English
  380. Default                                  : No
  381. Forced                                   : No
  382. Original source medium                   : Blu-ray
  383. Text #4
  384. ID                                       : 19
  385. ID in the original source medium         : 4609 (0x1201)
  386. Format                                   : PGS
  387. Muxing mode                              : zlib
  388. Codec ID                                 : S_HDMV/PGS
  389. Codec ID/Info                            : Picture based subtitle format used on BDs/HD-DVDs
  390. Duration                                 : 2 h 11 min
  391. Bit rate                                 : 40.6 kb/s
  392. Count of elements                        : 3190
  393. Stream size                              : 38.0 MiB (0%)
  394. Language                                 : English
  395. Default                                  : No
  396. Forced                                   : No
  397. Original source medium                   : Blu-ray
  398. Text #5
  399. ID                                       : 20
  400. ID in the original source medium         : 4610 (0x1202)
  401. Format                                   : PGS
  402. Muxing mode                              : zlib
  403. Codec ID                                 : S_HDMV/PGS
  404. Codec ID/Info                            : Picture based subtitle format used on BDs/HD-DVDs
  405. Duration                                 : 2 h 21 min
  406. Bit rate                                 : 20.5 kb/s
  407. Count of elements                        : 2846
  408. Stream size                              : 20.8 MiB (0%)
  409. Language                                 : Chinese
  410. Default                                  : No
  411. Forced                                   : No
  412. Original source medium                   : Blu-ray
  413. Text #6
  414. ID                                       : 21
  415. ID in the original source medium         : 4611 (0x1203)
  416. Format                                   : PGS
  417. Muxing mode                              : zlib
  418. Codec ID                                 : S_HDMV/PGS
  419. Codec ID/Info                            : Picture based subtitle format used on BDs/HD-DVDs
  420. Duration                                 : 2 h 18 min
  421. Bit rate                                 : 32.0 kb/s
  422. Count of elements                        : 2508
  423. Stream size                              : 31.8 MiB (0%)
  424. Language                                 : Danish
  425. Default                                  : No
  426. Forced                                   : No
  427. Original source medium                   : Blu-ray
  428. Text #7
  429. ID                                       : 22
  430. ID in the original source medium         : 4612 (0x1204)
  431. Format                                   : PGS
  432. Muxing mode                              : zlib
  433. Codec ID                                 : S_HDMV/PGS
  434. Codec ID/Info                            : Picture based subtitle format used on BDs/HD-DVDs
  435. Duration                                 : 2 h 18 min
  436. Bit rate                                 : 35.1 kb/s
  437. Count of elements                        : 2514
  438. Stream size                              : 34.8 MiB (0%)
  439. Language                                 : German
  440. Default                                  : No
  441. Forced                                   : No
  442. Original source medium                   : Blu-ray
  443. Text #8
  444. ID                                       : 23
  445. ID in the original source medium         : 4612 (0x1204)
  446. Format                                   : PGS
  447. Muxing mode                              : zlib
  448. Codec ID                                 : S_HDMV/PGS
  449. Codec ID/Info                            : Picture based subtitle format used on BDs/HD-DVDs
  450. Duration                                 : 1 h 31 min
  451. Bit rate                                 : 73 b/s
  452. Count of elements                        : 6
  453. Stream size                              : 49.0 KiB (0%)
  454. Language                                 : German
  455. Default                                  : No
  456. Forced                                   : No
  457. Original source medium                   : Blu-ray
  458. Text #9
  459. ID                                       : 24
  460. ID in the original source medium         : 4613 (0x1205)
  461. Format                                   : PGS
  462. Muxing mode                              : zlib
  463. Codec ID                                 : S_HDMV/PGS
  464. Codec ID/Info                            : Picture based subtitle format used on BDs/HD-DVDs
  465. Duration                                 : 2 h 18 min
  466. Bit rate                                 : 27.4 kb/s
  467. Count of elements                        : 2524
  468. Stream size                              : 27.1 MiB (0%)
  469. Language                                 : Spanish
  470. Default                                  : No
  471. Forced                                   : No
  472. Original source medium                   : Blu-ray
  473. Text #10
  474. ID                                       : 25
  475. ID in the original source medium         : 4613 (0x1205)
  476. Format                                   : PGS
  477. Muxing mode                              : zlib
  478. Codec ID                                 : S_HDMV/PGS
  479. Codec ID/Info                            : Picture based subtitle format used on BDs/HD-DVDs
  480. Duration                                 : 1 h 31 min
  481. Bit rate                                 : 80 b/s
  482. Count of elements                        : 6
  483. Stream size                              : 54.2 KiB (0%)
  484. Language                                 : Spanish
  485. Default                                  : No
  486. Forced                                   : No
  487. Original source medium                   : Blu-ray
  488. Text #11
  489. ID                                       : 26
  490. ID in the original source medium         : 4614 (0x1206)
  491. Format                                   : PGS
  492. Muxing mode                              : zlib
  493. Codec ID                                 : S_HDMV/PGS
  494. Codec ID/Info                            : Picture based subtitle format used on BDs/HD-DVDs
  495. Duration                                 : 2 h 18 min
  496. Bit rate                                 : 29.5 kb/s
  497. Count of elements                        : 2532
  498. Stream size                              : 29.2 MiB (0%)
  499. Language                                 : Spanish
  500. Default                                  : No
  501. Forced                                   : No
  502. Original source medium                   : Blu-ray
  503. Text #12
  504. ID                                       : 27
  505. ID in the original source medium         : 4614 (0x1206)
  506. Format                                   : PGS
  507. Muxing mode                              : zlib
  508. Codec ID                                 : S_HDMV/PGS
  509. Codec ID/Info                            : Picture based subtitle format used on BDs/HD-DVDs
  510. Duration                                 : 1 h 23 min
  511. Bit rate                                 : 186 b/s
  512. Count of elements                        : 10
  513. Stream size                              : 114 KiB (0%)
  514. Language                                 : Spanish
  515. Default                                  : No
  516. Forced                                   : No
  517. Original source medium                   : Blu-ray
  518. Text #13
  519. ID                                       : 28
  520. ID in the original source medium         : 4615 (0x1207)
  521. Format                                   : PGS
  522. Muxing mode                              : zlib
  523. Codec ID                                 : S_HDMV/PGS
  524. Codec ID/Info                            : Picture based subtitle format used on BDs/HD-DVDs
  525. Duration                                 : 2 h 18 min
  526. Bit rate                                 : 31.9 kb/s
  527. Count of elements                        : 2528
  528. Stream size                              : 31.7 MiB (0%)
  529. Language                                 : French
  530. Default                                  : No
  531. Forced                                   : No
  532. Original source medium                   : Blu-ray
  533. Text #14
  534. ID                                       : 29
  535. ID in the original source medium         : 4615 (0x1207)
  536. Format                                   : PGS
  537. Muxing mode                              : zlib
  538. Codec ID                                 : S_HDMV/PGS
  539. Codec ID/Info                            : Picture based subtitle format used on BDs/HD-DVDs
  540. Duration                                 : 1 h 31 min
  541. Bit rate                                 : 73 b/s
  542. Count of elements                        : 6
  543. Stream size                              : 49.5 KiB (0%)
  544. Language                                 : French
  545. Default                                  : No
  546. Forced                                   : No
  547. Original source medium                   : Blu-ray
  548. Text #15
  549. ID                                       : 30
  550. ID in the original source medium         : 4616 (0x1208)
  551. Format                                   : PGS
  552. Muxing mode                              : zlib
  553. Codec ID                                 : S_HDMV/PGS
  554. Codec ID/Info                            : Picture based subtitle format used on BDs/HD-DVDs
  555. Duration                                 : 2 h 18 min
  556. Bit rate                                 : 33.5 kb/s
  557. Count of elements                        : 2534
  558. Stream size                              : 33.2 MiB (0%)
  559. Language                                 : Italian
  560. Default                                  : No
  561. Forced                                   : No
  562. Original source medium                   : Blu-ray
  563. Text #16
  564. ID                                       : 31
  565. ID in the original source medium         : 4616 (0x1208)
  566. Format                                   : PGS
  567. Muxing mode                              : zlib
  568. Codec ID                                 : S_HDMV/PGS
  569. Codec ID/Info                            : Picture based subtitle format used on BDs/HD-DVDs
  570. Duration                                 : 1 h 31 min
  571. Bit rate                                 : 75 b/s
  572. Count of elements                        : 6
  573. Stream size                              : 50.7 KiB (0%)
  574. Language                                 : Italian
  575. Default                                  : No
  576. Forced                                   : No
  577. Original source medium                   : Blu-ray
  578. Text #17
  579. ID                                       : 32
  580. ID in the original source medium         : 4617 (0x1209)
  581. Format                                   : PGS
  582. Muxing mode                              : zlib
  583. Codec ID                                 : S_HDMV/PGS
  584. Codec ID/Info                            : Picture based subtitle format used on BDs/HD-DVDs
  585. Duration                                 : 2 h 10 min
  586. Bit rate                                 : 24.8 kb/s
  587. Count of elements                        : 2600
  588. Stream size                              : 23.2 MiB (0%)
  589. Language                                 : Japanese
  590. Default                                  : No
  591. Forced                                   : No
  592. Original source medium                   : Blu-ray
  593. Text #18
  594. ID                                       : 33
  595. ID in the original source medium         : 4617 (0x1209)
  596. Format                                   : PGS
  597. Muxing mode                              : zlib
  598. Codec ID                                 : S_HDMV/PGS
  599. Codec ID/Info                            : Picture based subtitle format used on BDs/HD-DVDs
  600. Duration                                 : 1 h 27 min
  601. Bit rate                                 : 281 b/s
  602. Count of elements                        : 18
  603. Stream size                              : 180 KiB (0%)
  604. Language                                 : Japanese
  605. Default                                  : No
  606. Forced                                   : No
  607. Original source medium                   : Blu-ray
  608. Text #19
  609. ID                                       : 34
  610. ID in the original source medium         : 4618 (0x120A)
  611. Format                                   : PGS
  612. Muxing mode                              : zlib
  613. Codec ID                                 : S_HDMV/PGS
  614. Codec ID/Info                            : Picture based subtitle format used on BDs/HD-DVDs
  615. Duration                                 : 2 h 21 min
  616. Bit rate                                 : 23.1 kb/s
  617. Count of elements                        : 3094
  618. Stream size                              : 23.4 MiB (0%)
  619. Language                                 : Chinese
  620. Default                                  : No
  621. Forced                                   : No
  622. Original source medium                   : Blu-ray
  623. Text #20
  624. ID                                       : 35
  625. ID in the original source medium         : 4619 (0x120B)
  626. Format                                   : PGS
  627. Muxing mode                              : zlib
  628. Codec ID                                 : S_HDMV/PGS
  629. Codec ID/Info                            : Picture based subtitle format used on BDs/HD-DVDs
  630. Duration                                 : 2 h 18 min
  631. Bit rate                                 : 31.9 kb/s
  632. Count of elements                        : 2510
  633. Stream size                              : 31.6 MiB (0%)
  634. Language                                 : Dutch
  635. Default                                  : No
  636. Forced                                   : No
  637. Original source medium                   : Blu-ray
  638. Text #21
  639. ID                                       : 36
  640. ID in the original source medium         : 4620 (0x120C)
  641. Format                                   : PGS
  642. Muxing mode                              : zlib
  643. Codec ID                                 : S_HDMV/PGS
  644. Codec ID/Info                            : Picture based subtitle format used on BDs/HD-DVDs
  645. Duration                                 : 2 h 18 min
  646. Bit rate                                 : 30.1 kb/s
  647. Count of elements                        : 2522
  648. Stream size                              : 29.9 MiB (0%)
  649. Language                                 : Norwegian
  650. Default                                  : No
  651. Forced                                   : No
  652. Original source medium                   : Blu-ray
  653. Text #22
  654. ID                                       : 37
  655. ID in the original source medium         : 4621 (0x120D)
  656. Format                                   : PGS
  657. Muxing mode                              : zlib
  658. Codec ID                                 : S_HDMV/PGS
  659. Codec ID/Info                            : Picture based subtitle format used on BDs/HD-DVDs
  660. Duration                                 : 2 h 21 min
  661. Bit rate                                 : 30.0 kb/s
  662. Count of elements                        : 2414
  663. Stream size                              : 30.3 MiB (0%)
  664. Language                                 : Portuguese
  665. Default                                  : No
  666. Forced                                   : No
  667. Original source medium                   : Blu-ray
  668. Text #23
  669. ID                                       : 38
  670. ID in the original source medium         : 4621 (0x120D)
  671. Format                                   : PGS
  672. Muxing mode                              : zlib
  673. Codec ID                                 : S_HDMV/PGS
  674. Codec ID/Info                            : Picture based subtitle format used on BDs/HD-DVDs
  675. Duration                                 : 1 h 4 min
  676. Bit rate                                 : 139 b/s
  677. Count of elements                        : 4
  678. Stream size                              : 66.0 KiB (0%)
  679. Language                                 : Portuguese
  680. Default                                  : No
  681. Forced                                   : No
  682. Original source medium                   : Blu-ray
  683. Text #24
  684. ID                                       : 39
  685. ID in the original source medium         : 4622 (0x120E)
  686. Format                                   : PGS
  687. Muxing mode                              : zlib
  688. Codec ID                                 : S_HDMV/PGS
  689. Codec ID/Info                            : Picture based subtitle format used on BDs/HD-DVDs
  690. Duration                                 : 2 h 18 min
  691. Bit rate                                 : 28.7 kb/s
  692. Count of elements                        : 2508
  693. Stream size                              : 28.4 MiB (0%)
  694. Language                                 : Finnish
  695. Default                                  : No
  696. Forced                                   : No
  697. Original source medium                   : Blu-ray
  698. Text #25
  699. ID                                       : 40
  700. ID in the original source medium         : 4623 (0x120F)
  701. Format                                   : PGS
  702. Muxing mode                              : zlib
  703. Codec ID                                 : S_HDMV/PGS
  704. Codec ID/Info                            : Picture based subtitle format used on BDs/HD-DVDs
  705. Duration                                 : 2 h 18 min
  706. Bit rate                                 : 32.4 kb/s
  707. Count of elements                        : 2524
  708. Stream size                              : 32.1 MiB (0%)
  709. Language                                 : Swedish
  710. Default                                  : No
  711. Forced                                   : No
  712. Original source medium                   : Blu-ray
  713. Text #26
  714. ID                                       : 41
  715. ID in the original source medium         : 4624 (0x1210)
  716. Format                                   : PGS
  717. Muxing mode                              : zlib
  718. Codec ID                                 : S_HDMV/PGS
  719. Codec ID/Info                            : Picture based subtitle format used on BDs/HD-DVDs
  720. Duration                                 : 2 h 17 min
  721. Bit rate                                 : 51.0 kb/s
  722. Count of elements                        : 3356
  723. Stream size                              : 50.0 MiB (0%)
  724. Language                                 : English
  725. Default                                  : No
  726. Forced                                   : No
  727. Original source medium                   : Blu-ray
  728. Text #27
  729. ID                                       : 42
  730. ID in the original source medium         : 4625 (0x1211)
  731. Format                                   : PGS
  732. Muxing mode                              : zlib
  733. Codec ID                                 : S_HDMV/PGS
  734. Codec ID/Info                            : Picture based subtitle format used on BDs/HD-DVDs
  735. Duration                                 : 2 h 21 min
  736. Bit rate                                 : 46.4 kb/s
  737. Count of elements                        : 3312
  738. Stream size                              : 46.9 MiB (0%)
  739. Language                                 : German
  740. Default                                  : No
  741. Forced                                   : No
  742. Original source medium                   : Blu-ray
  743. Text #28
  744. ID                                       : 43
  745. ID in the original source medium         : 4626 (0x1212)
  746. Format                                   : PGS
  747. Muxing mode                              : zlib
  748. Codec ID                                 : S_HDMV/PGS
  749. Codec ID/Info                            : Picture based subtitle format used on BDs/HD-DVDs
  750. Duration                                 : 2 h 21 min
  751. Bit rate                                 : 45.4 kb/s
  752. Count of elements                        : 3310
  753. Stream size                              : 46.0 MiB (0%)
  754. Language                                 : Spanish
  755. Default                                  : No
  756. Forced                                   : No
  757. Original source medium                   : Blu-ray
  758. Text #29
  759. ID                                       : 44
  760. ID in the original source medium         : 4627 (0x1213)
  761. Format                                   : PGS
  762. Muxing mode                              : zlib
  763. Codec ID                                 : S_HDMV/PGS
  764. Codec ID/Info                            : Picture based subtitle format used on BDs/HD-DVDs
  765. Duration                                 : 2 h 21 min
  766. Bit rate                                 : 46.9 kb/s
  767. Count of elements                        : 3346
  768. Stream size                              : 47.5 MiB (0%)
  769. Language                                 : Spanish
  770. Default                                  : No
  771. Forced                                   : No
  772. Original source medium                   : Blu-ray
  773. Text #30
  774. ID                                       : 45
  775. ID in the original source medium         : 4628 (0x1214)
  776. Format                                   : PGS
  777. Muxing mode                              : zlib
  778. Codec ID                                 : S_HDMV/PGS
  779. Codec ID/Info                            : Picture based subtitle format used on BDs/HD-DVDs
  780. Duration                                 : 2 h 21 min
  781. Bit rate                                 : 44.3 kb/s
  782. Count of elements                        : 3314
  783. Stream size                              : 44.9 MiB (0%)
  784. Language                                 : French
  785. Default                                  : No
  786. Forced                                   : No
  787. Original source medium                   : Blu-ray
  788. Text #31
  789. ID                                       : 46
  790. ID in the original source medium         : 4629 (0x1215)
  791. Format                                   : PGS
  792. Muxing mode                              : zlib
  793. Codec ID                                 : S_HDMV/PGS
  794. Codec ID/Info                            : Picture based subtitle format used on BDs/HD-DVDs
  795. Duration                                 : 2 h 21 min
  796. Bit rate                                 : 42.4 kb/s
  797. Count of elements                        : 3314
  798. Stream size                              : 43.0 MiB (0%)
  799. Language                                 : Italian
  800. Default                                  : No
  801. Forced                                   : No
  802. Original source medium                   : Blu-ray
  803. Text #32
  804. ID                                       : 47
  805. ID in the original source medium         : 4630 (0x1216)
  806. Format                                   : PGS
  807. Muxing mode                              : zlib
  808. Codec ID                                 : S_HDMV/PGS
  809. Codec ID/Info                            : Picture based subtitle format used on BDs/HD-DVDs
  810. Duration                                 : 2 h 17 min
  811. Bit rate                                 : 33.6 kb/s
  812. Count of elements                        : 2620
  813. Stream size                              : 33.0 MiB (0%)
  814. Language                                 : Japanese
  815. Default                                  : No
  816. Forced                                   : No
  817. Original source medium                   : Blu-ray
  818. Text #33
  819. ID                                       : 48
  820. ID in the original source medium         : 4631 (0x1217)
  821. Format                                   : PGS
  822. Muxing mode                              : zlib
  823. Codec ID                                 : S_HDMV/PGS
  824. Codec ID/Info                            : Picture based subtitle format used on BDs/HD-DVDs
  825. Duration                                 : 2 h 21 min
  826. Bit rate                                 : 47.4 kb/s
  827. Count of elements                        : 3347
  828. Stream size                              : 48.0 MiB (0%)
  829. Language                                 : Portuguese
  830. Default                                  : No
  831. Forced                                   : No
  832. Original source medium                   : Blu-ray
  833. Text #34
  834. ID                                       : 49
  835. ID in the original source medium         : 4632 (0x1218)
  836. Format                                   : PGS
  837. Muxing mode                              : zlib
  838. Codec ID                                 : S_HDMV/PGS
  839. Codec ID/Info                            : Picture based subtitle format used on BDs/HD-DVDs
  840. Duration                                 : 2 h 15 min
  841. Bit rate                                 : 26.4 kb/s
  842. Count of elements                        : 1668
  843. Stream size                              : 25.6 MiB (0%)
  844. Language                                 : English
  845. Default                                  : No
  846. Forced                                   : No
  847. Original source medium                   : Blu-ray
  848. Text #35
  849. ID                                       : 50
  850. ID in the original source medium         : 4633 (0x1219)
  851. Format                                   : PGS
  852. Muxing mode                              : zlib
  853. Codec ID                                 : S_HDMV/PGS
  854. Codec ID/Info                            : Picture based subtitle format used on BDs/HD-DVDs
  855. Duration                                 : 2 h 21 min
  856. Bit rate                                 : 23.1 kb/s
  857. Count of elements                        : 1592
  858. Stream size                              : 23.3 MiB (0%)
  859. Language                                 : German
  860. Default                                  : No
  861. Forced                                   : No
  862. Original source medium                   : Blu-ray
  863. Text #36
  864. ID                                       : 51
  865. ID in the original source medium         : 4634 (0x121A)
  866. Format                                   : PGS
  867. Muxing mode                              : zlib
  868. Codec ID                                 : S_HDMV/PGS
  869. Codec ID/Info                            : Picture based subtitle format used on BDs/HD-DVDs
  870. Duration                                 : 2 h 21 min
  871. Bit rate                                 : 21.3 kb/s
  872. Count of elements                        : 1592
  873. Stream size                              : 21.6 MiB (0%)
  874. Language                                 : Spanish
  875. Default                                  : No
  876. Forced                                   : No
  877. Original source medium                   : Blu-ray
  878. Text #37
  879. ID                                       : 52
  880. ID in the original source medium         : 4635 (0x121B)
  881. Format                                   : PGS
  882. Muxing mode                              : zlib
  883. Codec ID                                 : S_HDMV/PGS
  884. Codec ID/Info                            : Picture based subtitle format used on BDs/HD-DVDs
  885. Duration                                 : 2 h 21 min
  886. Bit rate                                 : 22.9 kb/s
  887. Count of elements                        : 1666
  888. Stream size                              : 23.1 MiB (0%)
  889. Language                                 : Spanish
  890. Default                                  : No
  891. Forced                                   : No
  892. Original source medium                   : Blu-ray
  893. Text #38
  894. ID                                       : 53
  895. ID in the original source medium         : 4636 (0x121C)
  896. Format                                   : PGS
  897. Muxing mode                              : zlib
  898. Codec ID                                 : S_HDMV/PGS
  899. Codec ID/Info                            : Picture based subtitle format used on BDs/HD-DVDs
  900. Duration                                 : 2 h 21 min
  901. Bit rate                                 : 21.0 kb/s
  902. Count of elements                        : 1593
  903. Stream size                              : 21.2 MiB (0%)
  904. Language                                 : French
  905. Default                                  : No
  906. Forced                                   : No
  907. Original source medium                   : Blu-ray
  908. Text #39
  909. ID                                       : 54
  910. ID in the original source medium         : 4637 (0x121D)
  911. Format                                   : PGS
  912. Muxing mode                              : zlib
  913. Codec ID                                 : S_HDMV/PGS
  914. Codec ID/Info                            : Picture based subtitle format used on BDs/HD-DVDs
  915. Duration                                 : 2 h 21 min
  916. Bit rate                                 : 20.9 kb/s
  917. Count of elements                        : 1592
  918. Stream size                              : 21.1 MiB (0%)
  919. Language                                 : Italian
  920. Default                                  : No
  921. Forced                                   : No
  922. Original source medium                   : Blu-ray
  923. Text #40
  924. ID                                       : 55
  925. ID in the original source medium         : 4638 (0x121E)
  926. Format                                   : PGS
  927. Muxing mode                              : zlib
  928. Codec ID                                 : S_HDMV/PGS
  929. Codec ID/Info                            : Picture based subtitle format used on BDs/HD-DVDs
  930. Duration                                 : 2 h 15 min
  931. Bit rate                                 : 16.1 kb/s
  932. Count of elements                        : 1246
  933. Stream size                              : 15.7 MiB (0%)
  934. Language                                 : Japanese
  935. Default                                  : No
  936. Forced                                   : No
  937. Original source medium                   : Blu-ray
  938. Text #41
  939. ID                                       : 56
  940. ID in the original source medium         : 4639 (0x121F)
  941. Format                                   : PGS
  942. Muxing mode                              : zlib
  943. Codec ID                                 : S_HDMV/PGS
  944. Codec ID/Info                            : Picture based subtitle format used on BDs/HD-DVDs
  945. Duration                                 : 2 h 21 min
  946. Bit rate                                 : 23.1 kb/s
  947. Count of elements                        : 1666
  948. Stream size                              : 23.4 MiB (0%)
  949. Language                                 : Portuguese
  950. Default                                  : No
  951. Forced                                   : No
  952. Original source medium                   : Blu-ray
  953. Menu
  954. 00:00:00.000                             : en:Chapter 01
  955. 00:06:42.068                             : en:Chapter 02
  956. 00:12:23.075                             : en:Chapter 03
  957. 00:19:55.319                             : en:Chapter 04
  958. 00:31:12.203                             : en:Chapter 05
  959. 00:40:38.769                             : en:Chapter 06
  960. 00:44:16.654                             : en:Chapter 07
  961. 00:56:32.806                             : en:Chapter 08
  962. 01:03:30.765                             : en:Chapter 09
  963. 01:13:32.574                             : en:Chapter 10
  964. 01:17:01.325                             : en:Chapter 11
  965. 01:23:50.775                             : en:Chapter 12
  966. 01:34:58.442                             : en:Chapter 13
  967. 01:38:54.094                             : en:Chapter 14
  968. 01:43:51.391                             : en:Chapter 15
  969. 01:51:26.805                             : en:Chapter 16
  970. 01:58:53.209                             : en:Chapter 17
  971. 02:04:47.062                             : en:Chapter 18
  972. 02:15:24.282                             : en:Chapter 19
复制代码

阿甘正传 Forrest.Gump.1994.REMASTERED.1080p.BluRay.REMUX.AVC.DTS-HD.MA.TrueHD.7.1.Atmos-FGT 38.75GB ...

阿甘正传 Forrest.Gump.1994.REMASTERED.1080p.BluRay.REMUX.AVC.DTS-HD.MA.TrueHD.7.1.Atmos-FGT 38.75GB ...

阿甘正传 Forrest.Gump.1994.REMASTERED.1080p.BluRay.REMUX.AVC.DTS-HD.MA.TrueHD.7.1.Atmos-FGT 38.75GB ...

阿甘正传 Forrest.Gump.1994.REMASTERED.1080p.BluRay.REMUX.AVC.DTS-HD.MA.TrueHD.7.1.Atmos-FGT 38.75GB ...



4K321提示您 点击下方附件即可下载

阿甘正传 Forrest.Gump.1994.REMASTERED.1080p.BluRay.REMUX.AVC.DTS-HD.MA.TrueHD.7.1.Atmos-FGT 38.75GB

Forrest.Gump.1994.REMASTERED.1080p.BluRay.REMUX.AVC.DTS-HD.MA.TrueHD.7.1.Atmos-FGT.torrent ( 49.14 KB )

回复

使用道具 举报

全部回复0 显示全部楼层

声明:您在社区发表的所有信息仅代表用户个人观点,与本网站立场无关,希望各位烧友理性发言,不发表违法国家法律禁止的话题。

您需要登录后才可以回帖 登录 | 立即注册

本版积分规则

联系客服 关注微信 下载APP 返回顶部 返回列表