开启左侧

[惊悚片] 不要进屋 Dont.Go.In.The.House.1979.ALTERNATIVE.CUT.1080p.BluRay.REMUX.AVC.LPCM.1.0-FGT 13.24GB

蓝鸟 发表于 2022-6-2 17:45:10 | 显示全部楼层 |阅读模式

不要进屋 Dont.Go.In.The.House.1979.ALTERNATIVE.CUT.1080p.BluRay.REMUX.AVC.LPCM.1.0-FGT 13.24GB

不要进屋 Dont.Go.In.The.House.1979.ALTERNATIVE.CUT.1080p.BluRay.REMUX.AVC.LPCM.1.0-FGT 13.24GB


译  名 不要进屋 / 别进屋
片  名 Don''t Go in the House
年  代 1979
产  地 美国
类  别 惊悚 / 恐怖 / 犯罪
语  言 英语
上映日期 1980-03-28(美国)
豆瓣评分 5.8/10 (329人评价)
片  长 82 分钟
演  员 Tom Brumberger Tom Brumberger
       Tom Brumberger Tom Brumberger

简  介

唐那德 柯勒尔有一个傲慢残忍的母亲柯勒尔夫人(Ruth Dardick饰)。为了除掉所谓附在柯勒尔身上的魔鬼,母亲屡次把他置于火上烘烤。多年后,柯勒尔长大成人,成为了新泽西州一名火炉工人。一日,工厂的焚烧炉发生意外泄漏事故,一名同事被喷射出的火焰烧伤,痛苦不堪,柯勒尔目睹了这一切,隐藏在心底那些惨痛的记忆再次浮现,于是他拒绝了朋友邀他喝酒压惊的建议,回到家中,发现他的体弱的母亲已经在熟睡中死去。柯勒尔终于永久地摆脱了肆虐成性的母亲,但多年来压抑在心底的痛苦和怨恨并没有因母亲的逝世而释怀,反而在连续的刺激下突然爆发,心理极度扭曲的他在家里设置一个金属铁屋和火焰喷射器,并将一个在跳舞时遇到了酷似母亲的长着亚麻色头发的女郎Kathy Jordan (Johanna Brushay饰)诱骗到家里,将她关入铁屋,用火焰喷射器烘烤她;柯勒尔自己则穿上母亲的衣服,...


影片参数
  1. Video
  2. ID                                       : 1
  3. ID in the original source medium         : 4113 (0x1011)
  4. Format                                   : AVC
  5. Format/Info                              : Advanced Video Codec
  6. Format profile                           : [email protected]
  7. Format settings                          : CABAC / 3 Ref Frames
  8. Format settings, CABAC                   : Yes
  9. Format settings, Reference frames        : 3 frames
  10. Codec ID                                 : V_MPEG4/ISO/AVC
  11. Duration                                 : 1 h 29 min
  12. Bit rate mode                            : Variable
  13. Bit rate                                 : 20.0 Mb/s
  14. Maximum bit rate                         : 35.0 Mb/s
  15. Width                                    : 1 920 pixels
  16. Height                                   : 1 080 pixels
  17. Display aspect ratio                     : 16:9
  18. Frame rate mode                          : Constant
  19. Frame rate                               : 23.976 (24000/1001/189150) FPS
  20. Color space                              : YUV
  21. Chroma subsampling                       : 4:2:0
  22. Bit depth                                : 8 bits
  23. Scan type                                : Progressive
  24. Bits/(Pixel*Frame)                       : 0.402
  25. Stream size                              : 12.5 GiB (95%)
  26. Writing library                          : x264 core 157 r2969 d4099dd
  27. Encoding settings                        : cabac=1 / ref=4 / deblock=1:-1:-1 / analyse=0x3:0x133 / me=umh / subme=10 / psy=1 / psy_rd=1.00:0.15 / mixed_ref=1 / me_range=24 / chroma_me=1 / trellis=2 / 8x8dct=1 / cqm=0 / deadzone=21,11 / fast_pskip=1 / chroma_qp_offset=-3 / threads=18 / lookahead_threads=1 / sliced_threads=0 / slices=4 / nr=0 / decimate=1 / interlaced=0 / bluray_compat=1 / constrained_intra=0 / bframes=3 / b_pyramid=1 / b_adapt=2 / b_bias=0 / direct=3 / weightb=1 / open_gop=1 / weightp=1 / keyint=24 / keyint_min=1 / scenecut=40 / intra_refresh=0 / rc_lookahead=24 / rc=2pass / mbtree=1 / bitrate=20000 / ratetol=0.5 / qcomp=0.90 / qpmin=0 / qpmax=69 / qpstep=4 / cplxblur=20.0 / qblur=0.5 / vbv_maxrate=35000 / vbv_bufsize=30000 / nal_hrd=vbr / filler=0 / ip_ratio=1.40 / aq=1:1.00
  28. Language                                 : English
  29. Default                                  : No
  30. Forced                                   : No
  31. Color range                              : Limited
  32. Color primaries                          : BT.709
  33. Transfer characteristics                 : BT.709
  34. Matrix coefficients                      : BT.709
  35. Original source medium                   : Blu-ray
  36. Audio
  37. ID                                       : 2
  38. ID in the original source medium         : 4352 (0x1100)
  39. Format                                   : PCM
  40. Format settings                          : Little / Signed
  41. Codec ID                                 : A_PCM/INT/LIT
  42. Duration                                 : 1 h 29 min
  43. Bit rate mode                            : Constant
  44. Bit rate                                 : 1 152 kb/s
  45. Channel(s)                               : 1 channel
  46. Sampling rate                            : 48.0 kHz
  47. Frame rate                               : 30.000 FPS (1600 SPF)
  48. Bit depth                                : 24 bits
  49. Stream size                              : 738 MiB (5%)
  50. Title                                    : LPCM 1.0
  51. Language                                 : English
  52. Default                                  : Yes
  53. Forced                                   : No
  54. Original source medium                   : Blu-ray
  55. Text #1
  56. ID                                       : 3
  57. Format                                   : UTF-8
  58. Codec ID                                 : S_TEXT/UTF8
  59. Codec ID/Info                            : UTF-8 Plain Text
  60. Duration                                 : 1 h 29 min
  61. Bit rate                                 : 44 b/s
  62. Count of elements                        : 931
  63. Stream size                              : 29.4 KiB (0%)
  64. Language                                 : English
  65. Default                                  : Yes
  66. Forced                                   : No
  67. Text #2
  68. ID                                       : 4
  69. ID in the original source medium         : 4608 (0x1200)
  70. Format                                   : PGS
  71. Muxing mode                              : zlib
  72. Codec ID                                 : S_HDMV/PGS
  73. Codec ID/Info                            : Picture based subtitle format used on BDs/HD-DVDs
  74. Duration                                 : 1 h 29 min
  75. Bit rate                                 : 25.5 kb/s
  76. Count of elements                        : 1862
  77. Stream size                              : 16.3 MiB (0%)
  78. Language                                 : English
  79. Default                                  : No
  80. Forced                                   : No
  81. Original source medium                   : Blu-ray
  82. Menu
  83. 00:00:00.000                             : en:Chapter 01
  84. 00:07:48.134                             : en:Chapter 02
  85. 00:14:49.763                             : en:Chapter 03
  86. 00:21:40.090                             : en:Chapter 04
  87. 00:28:51.438                             : en:Chapter 05
  88. 00:35:28.084                             : en:Chapter 06
  89. 00:47:29.304                             : en:Chapter 07
  90. 00:59:05.875                             : en:Chapter 08
  91. 01:04:41.460                             : en:Chapter 09
  92. 01:11:19.733                             : en:Chapter 10
  93. 01:17:33.482                             : en:Chapter 11
  94. 01:23:38.680                             : en:Chapter 12
复制代码



4K321提示您 点击下方附件即可下载

不要进屋 Dont.Go.In.The.House.1979.ALTERNATIVE.CUT.1080p.BluRay.REMUX.AVC.LPCM.1.0-FGT 13.24GB

Dont.Go.In.The.House.1979.ALTERNATIVE.CUT.1080p.BluRay.REMUX.AVC.LPCM.1.0-FGT.torrent ( 17.23 KB )

回复

使用道具 举报

全部回复0 显示全部楼层

声明:您在社区发表的所有信息仅代表用户个人观点,与本网站立场无关,希望各位烧友理性发言,不发表违法国家法律禁止的话题。

您需要登录后才可以回帖 登录 | 立即注册

本版积分规则

联系客服 关注微信 下载APP 返回顶部 返回列表