开启左侧

[喜剧片] 出窍遇见爱 Faraway.Eyes.2020.1080p.BluRay.REMUX.AVC.DTS-HD.MA.5.1-FGT 12.16GB

蓝鸟 发表于 2022-6-2 17:42:42 | 显示全部楼层 |阅读模式

出窍遇见爱 Faraway.Eyes.2020.1080p.BluRay.REMUX.AVC.DTS-HD.MA.5.1-FGT 12.16GB

出窍遇见爱 Faraway.Eyes.2020.1080p.BluRay.REMUX.AVC.DTS-HD.MA.5.1-FGT 12.16GB


译  名 出窍遇见爱
片  名 Faraway Eyes
年  代 2019
产  地 美国
类  别 喜剧 / 爱情 / 奇幻
上映日期 2020-03-07(美国)
演  员 杰基·克鲁兹 Jackie Cruz
       迈克尔·里斯波利 Michael Rispoli
       弗洛伦西娅·洛扎诺 Florencia Lozano
       珍妮·柏林 Jeannie Berlin
       安迪·卡尔 Andy Karl
       张欣迪 Cindy Cheung
       妮基·米歇尔·詹姆斯 Nikki Michelle James
       泰勒·萝丝 Taylor Rose
       凯西·塞雷尔 Kathy Searle
       理查德·托普尔 Richard Topol
       诺拉·阿娜泽德尔 Nora Arnezeder


影片参数
  1. Video
  2. ID                                       : 1
  3. ID in the original source medium         : 4113 (0x1011)
  4. Format                                   : AVC
  5. Format/Info                              : Advanced Video Codec
  6. Format profile                           : [email protected]
  7. Format settings                          : CABAC / 2 Ref Frames
  8. Format settings, CABAC                   : Yes
  9. Format settings, Reference frames        : 2 frames
  10. Codec ID                                 : V_MPEG4/ISO/AVC
  11. Duration                                 : 2 h 1 min
  12. Bit rate mode                            : Variable
  13. Bit rate                                 : 12.6 Mb/s
  14. Maximum bit rate                         : 30.2 Mb/s
  15. Width                                    : 1 920 pixels
  16. Height                                   : 1 080 pixels
  17. Display aspect ratio                     : 16:9
  18. Frame rate mode                          : Constant
  19. Frame rate                               : 23.976 (24000/1001/189150) FPS
  20. Color space                              : YUV
  21. Chroma subsampling                       : 4:2:0
  22. Bit depth                                : 8 bits
  23. Scan type                                : Progressive
  24. Bits/(Pixel*Frame)                       : 0.253
  25. Stream size                              : 10.7 GiB (88%)
  26. Language                                 : English
  27. Default                                  : No
  28. Forced                                   : No
  29. Original source medium                   : Blu-ray
  30. Audio
  31. ID                                       : 2
  32. ID in the original source medium         : 4353 (0x1101)
  33. Format                                   : DTS XLL
  34. Format/Info                              : Digital Theater Systems
  35. Commercial name                          : DTS-HD Master Audio
  36. Codec ID                                 : A_DTS
  37. Duration                                 : 2 h 1 min
  38. Bit rate mode                            : Variable
  39. Bit rate                                 : 1 668 kb/s
  40. Channel(s)                               : 6 channels
  41. Channel layout                           : C L R Ls Rs LFE
  42. Sampling rate                            : 48.0 kHz
  43. Frame rate                               : 93.750 FPS (512 SPF)
  44. Bit depth                                : 16 bits
  45. Compression mode                         : Lossless
  46. Stream size                              : 1.42 GiB (12%)
  47. Title                                    : DTS-HD MA 5.1
  48. Language                                 : English
  49. Default                                  : Yes
  50. Forced                                   : No
  51. Original source medium                   : Blu-ray
  52. Text #1
  53. ID                                       : 3
  54. Format                                   : UTF-8
  55. Codec ID                                 : S_TEXT/UTF8
  56. Codec ID/Info                            : UTF-8 Plain Text
  57. Duration                                 : 1 h 56 min
  58. Bit rate                                 : 83 b/s
  59. Count of elements                        : 2213
  60. Stream size                              : 71.0 KiB (0%)
  61. Language                                 : English
  62. Default                                  : Yes
  63. Forced                                   : No
  64. Text #2
  65. ID                                       : 4
  66. Format                                   : UTF-8
  67. Codec ID                                 : S_TEXT/UTF8
  68. Codec ID/Info                            : UTF-8 Plain Text
  69. Duration                                 : 1 h 57 min
  70. Bit rate                                 : 87 b/s
  71. Count of elements                        : 2443
  72. Stream size                              : 75.1 KiB (0%)
  73. Title                                    : SDH
  74. Language                                 : English
  75. Default                                  : No
  76. Forced                                   : No
  77. Menu
  78. 00:00:00.000                             : en:Chapter 01
  79. 00:04:25.848                             : en:Chapter 02
  80. 00:20:22.888                             : en:Chapter 03
  81. 00:35:30.086                             : en:Chapter 04
  82. 00:46:07.723                             : en:Chapter 05
  83. 00:55:20.692                             : en:Chapter 06
  84. 01:05:37.934                             : en:Chapter 07
  85. 01:13:32.116                             : en:Chapter 08
  86. 01:25:59.195                             : en:Chapter 09
  87. 01:30:54.365                             : en:Chapter 10
  88. 01:44:59.668                             : en:Chapter 11
  89. 01:57:14.277                             : en:Chapter 12
复制代码

出窍遇见爱 Faraway.Eyes.2020.1080p.BluRay.REMUX.AVC.DTS-HD.MA.5.1-FGT 12.16GB

出窍遇见爱 Faraway.Eyes.2020.1080p.BluRay.REMUX.AVC.DTS-HD.MA.5.1-FGT 12.16GB

出窍遇见爱 Faraway.Eyes.2020.1080p.BluRay.REMUX.AVC.DTS-HD.MA.5.1-FGT 12.16GB

出窍遇见爱 Faraway.Eyes.2020.1080p.BluRay.REMUX.AVC.DTS-HD.MA.5.1-FGT 12.16GB



4K321提示您 点击下方附件即可下载

出窍遇见爱 Faraway.Eyes.2020.1080p.BluRay.REMUX.AVC.DTS-HD.MA.5.1-FGT 12.16GB

Faraway.Eyes.2020.1080p.BluRay.REMUX.AVC.DTS-HD.MA.5.1-FGT.torrent ( 15.85 KB )

回复

使用道具 举报

全部回复0 显示全部楼层

声明:您在社区发表的所有信息仅代表用户个人观点,与本网站立场无关,希望各位烧友理性发言,不发表违法国家法律禁止的话题。

您需要登录后才可以回帖 登录 | 立即注册

本版积分规则

联系客服 关注微信 下载APP 返回顶部 返回列表