开启左侧

[恐怖片] 上帝的驱魔 The.Exorcism.of.God.2021.1080p.BluRay.REMUX.AVC.DTS-HD.MA.5.1-FGT 25.47GB

蓝鸟 发表于 2022-6-2 17:40:36 | 显示全部楼层 |阅读模式

上帝的驱魔 The.Exorcism.of.God.2021.1080p.BluRay.REMUX.AVC.DTS-HD.MA.5.1-FGT 25.47GB

上帝的驱魔 The.Exorcism.of.God.2021.1080p.BluRay.REMUX.AVC.DTS-HD.MA.5.1-FGT 25.47GB


译  名 上帝的驱魔 / 驱魔之神 / 神鬼驱魔令(台)
片  名 The Exorcism of God
年  代 2021
产  地 墨西哥 / 美国
类  别 恐怖
语  言 英语
上映日期 2021-09-27(Fantastic Fest)
豆瓣评分 6.1/10 (925人评价)
片  长 98分钟
演  员 约瑟夫·马塞尔 Joseph Marcell
       玛利亚·加布里埃拉·法里亚 María Gabriela de Faría
       维尔·贝布林克 Will Beinbrink
       埃洛伊萨·玛图恩 Eloisa Maturen

简  介

故事讲述彼得·威廉姆斯神父的他被一个他试图驱除的恶魔附身,最终犯下了最可怕的亵渎罪,18年后,他的罪的后果将再次困扰他,展开与内心邪恶最伟大的斗争。


影片参数
  1. Video
  2. ID                                       : 1
  3. ID in the original source medium         : 4113 (0x1011)
  4. Format                                   : AVC
  5. Format/Info                              : Advanced Video Codec
  6. Format profile                           : [email protected]
  7. Format settings                          : CABAC / 4 Ref Frames
  8. Format settings, CABAC                   : Yes
  9. Format settings, Reference frames        : 4 frames
  10. Codec ID                                 : V_MPEG4/ISO/AVC
  11. Duration                                 : 1 h 38 min
  12. Bit rate mode                            : Variable
  13. Bit rate                                 : 33.4 Mb/s
  14. Maximum bit rate                         : 37.0 Mb/s
  15. Width                                    : 1 920 pixels
  16. Height                                   : 1 080 pixels
  17. Display aspect ratio                     : 16:9
  18. Frame rate mode                          : Constant
  19. Frame rate                               : 23.976 (24000/1001/189150) FPS
  20. Color space                              : YUV
  21. Chroma subsampling                       : 4:2:0
  22. Bit depth                                : 8 bits
  23. Scan type                                : Progressive
  24. Bits/(Pixel*Frame)                       : 0.672
  25. Stream size                              : 23.1 GiB (91%)
  26. Language                                 : English
  27. Default                                  : No
  28. Forced                                   : No
  29. Original source medium                   : Blu-ray
  30. Audio
  31. ID                                       : 2
  32. ID in the original source medium         : 4352 (0x1100)
  33. Format                                   : DTS XLL
  34. Format/Info                              : Digital Theater Systems
  35. Commercial name                          : DTS-HD Master Audio
  36. Codec ID                                 : A_DTS
  37. Duration                                 : 1 h 38 min
  38. Bit rate mode                            : Variable
  39. Bit rate                                 : 3 406 kb/s
  40. Channel(s)                               : 6 channels
  41. Channel layout                           : C L R Ls Rs LFE
  42. Sampling rate                            : 48.0 kHz
  43. Frame rate                               : 93.750 FPS (512 SPF)
  44. Bit depth                                : 24 bits
  45. Compression mode                         : Lossless
  46. Stream size                              : 2.35 GiB (9%)
  47. Title                                    : DTS-HD MA 5.1
  48. Language                                 : English
  49. Default                                  : Yes
  50. Forced                                   : No
  51. Original source medium                   : Blu-ray
  52. Text #1
  53. ID                                       : 3
  54. Format                                   : UTF-8
  55. Codec ID                                 : S_TEXT/UTF8
  56. Codec ID/Info                            : UTF-8 Plain Text
  57. Duration                                 : 1 h 28 min
  58. Bit rate                                 : 23 b/s
  59. Count of elements                        : 539
  60. Stream size                              : 15.0 KiB (0%)
  61. Language                                 : English
  62. Default                                  : Yes
  63. Forced                                   : No
  64. Text #2
  65. ID                                       : 4
  66. Format                                   : UTF-8
  67. Codec ID                                 : S_TEXT/UTF8
  68. Codec ID/Info                            : UTF-8 Plain Text
  69. Duration                                 : 1 h 37 min
  70. Bit rate                                 : 30 b/s
  71. Count of elements                        : 880
  72. Stream size                              : 21.6 KiB (0%)
  73. Title                                    : SDH
  74. Language                                 : English
  75. Default                                  : No
  76. Forced                                   : No
  77. Text #3
  78. ID                                       : 5
  79. ID in the original source medium         : 4608 (0x1200)
  80. Format                                   : PGS
  81. Muxing mode                              : zlib
  82. Codec ID                                 : S_HDMV/PGS
  83. Codec ID/Info                            : Picture based subtitle format used on BDs/HD-DVDs
  84. Duration                                 : 1 h 37 min
  85. Bit rate                                 : 19.6 kb/s
  86. Count of elements                        : 1784
  87. Stream size                              : 13.7 MiB (0%)
  88. Language                                 : English
  89. Default                                  : No
  90. Forced                                   : No
  91. Original source medium                   : Blu-ray
  92. Text #4
  93. ID                                       : 6
  94. ID in the original source medium         : 4609 (0x1201)
  95. Format                                   : PGS
  96. Muxing mode                              : zlib
  97. Codec ID                                 : S_HDMV/PGS
  98. Codec ID/Info                            : Picture based subtitle format used on BDs/HD-DVDs
  99. Duration                                 : 1 h 36 min
  100. Bit rate                                 : 16.9 kb/s
  101. Count of elements                        : 1352
  102. Stream size                              : 11.7 MiB (0%)
  103. Language                                 : Spanish
  104. Default                                  : No
  105. Forced                                   : No
  106. Original source medium                   : Blu-ray
  107. Menu
  108. 00:00:00.000                             : en:Chapter 01
  109. 00:04:08.248                             : en:Chapter 02
  110. 00:11:31.816                             : en:Chapter 03
  111. 00:16:29.780                             : en:Chapter 04
  112. 00:21:28.954                             : en:Chapter 05
  113. 00:26:20.161                             : en:Chapter 06
  114. 00:31:52.118                             : en:Chapter 07
  115. 00:37:32.166                             : en:Chapter 08
  116. 00:42:09.109                             : en:Chapter 09
  117. 00:48:23.775                             : en:Chapter 10
  118. 00:54:03.782                             : en:Chapter 11
  119. 00:59:48.001                             : en:Chapter 12
  120. 01:04:36.414                             : en:Chapter 13
  121. 01:12:55.204                             : en:Chapter 14
  122. 01:19:05.240                             : en:Chapter 15
  123. 01:26:51.831                             : en:Chapter 16
复制代码



4K321提示您 点击下方附件即可下载

上帝的驱魔 The.Exorcism.of.God.2021.1080p.BluRay.REMUX.AVC.DTS-HD.MA.5.1-FGT 25.47GB

The.Exorcism.of.God.2021.1080p.BluRay.REMUX.AVC.DTS-HD.MA.5.1-FGT.torrent ( 32.5 KB )

回复

使用道具 举报

全部回复0 显示全部楼层

声明:您在社区发表的所有信息仅代表用户个人观点,与本网站立场无关,希望各位烧友理性发言,不发表违法国家法律禁止的话题。

您需要登录后才可以回帖 登录 | 立即注册

本版积分规则

联系客服 关注微信 下载APP 返回顶部 返回列表