开启左侧

[动作片] 日月人鱼 The.Kings.Daughter.2022.1080p.BluRay.REMUX.AVC.DTS-HD.MA.5.1-FGT 27.72GB

蓝鸟 发表于 2022-6-2 17:39:49 | 显示全部楼层 |阅读模式

日月人鱼 The.Kings.Daughter.2022.1080p.BluRay.REMUX.AVC.DTS-HD.MA.5.1-FGT 27.72GB

日月人鱼 The.Kings.Daughter.2022.1080p.BluRay.REMUX.AVC.DTS-HD.MA.5.1-FGT 27.72GB


译  名 日月人鱼 / 凡尔赛传奇 / 日月人鱼:国王的女儿 / 路易十四与美人鱼 / Mermaid / The Moon and the Sun
片  名 The King''s Daughter
年  代 2022
产  地 澳大利亚
类  别 动作 / 家庭 / 奇幻 / 冒险
语  言 英语
上映日期 2022-01-21(美国/加拿大)
豆瓣评分 3.9/10 (623人评价)
片  长 90分钟
导  演 肖恩·麦克纳马拉 Sean McNamara
       迈克尔·麦克纳马拉 Michael McNamara
编  剧 巴里·伯曼 Barry Berman
       詹姆斯·夏慕斯 James Schamus
       冯达·N·麦金太尔 Vonda N. McIntyre  
演  员 皮尔斯·布鲁斯南 Pierce Brosnan
       卡雅·斯考达里奥 Kaya Scodelario
       本杰明·沃克 Benjamin Walker
       威廉·赫特 William Hurt
       瑞切尔·格里菲斯 Rachel Griffiths
       范冰冰 Bingbing Fan
       本·劳埃德-休斯 Ben Lloyd-Hughes
       保罗·爱尔兰 Paul Ireland
       巴勃罗·施瑞博尔 Pablo Schreiber
       克里斯塔·克拉克 Crystal Clarke
       朱莉·安德鲁斯 Julie Andrews
       杰西卡·克拉克 Jessica Clarke
       克里斯蒂安·贝德 Kristian Beddow
       汤姆·莫顿 Tom Morton
       卡雅·布洛克萨奇 Kaya Blocksage
       理查德·阿纳斯塔西奥斯 Richard Anastasios
       肖恩·麦克纳马拉 Sean McNamara
       比尔·奈伊 Bill Nighy
       劳拉·哈灵顿 Laura Harrington
       韩薇 Wei Han
       丽兹·加德纳 Lizzy Gardiner

简  介

这是一个属于国王和王后的年代, 电影讲述了发生在美人鱼和路易十四国王之间一段独一无二的奇幻故事……法国, 路易十四建立起了强大的太阳帝国, 却只有一个低能儿的王子可以继承他的王位. 对于未来忧心忡忡的他, 经多方探访得知获得美人鱼的力量可以获得生命的永恒,确保王位的稳固。他派出得力干将伊夫斯,带领法国海军出海苦苦搜捕,终于抓得一只美人鱼,并带回凡尔赛宫软禁。与此同时, 美丽天真的女孩子玛丽.约瑟夫, 被人从海边修道院送入了皇宫。她其实是路易十四与最心爱的情妇的私生女,为了解决一笔战争欠款路易十四为她安排了一场联姻。初到皇室的玛丽对一切阴谋一无所知, 却邂逅了被禁皇宫的美人鱼并和她成为了好友,并逐渐爱上了看守美人鱼的军官伊夫斯。随着玛丽和美人鱼之间的关系越来越紧密, 玛丽决定反抗父亲, 冒着失去生命和自由的危险, 救出她的朋友…


影片参数
  1. Video
  2. ID                                       : 1
  3. ID in the original source medium         : 4113 (0x1011)
  4. Format                                   : AVC
  5. Format/Info                              : Advanced Video Codec
  6. Format profile                           : [email protected]
  7. Format settings                          : CABAC / 2 Ref Frames
  8. Format settings, CABAC                   : Yes
  9. Format settings, Reference frames        : 2 frames
  10. Codec ID                                 : V_MPEG4/ISO/AVC
  11. Duration                                 : 1 h 38 min
  12. Bit rate mode                            : Variable
  13. Bit rate                                 : 36.6 Mb/s
  14. Width                                    : 1 920 pixels
  15. Height                                   : 1 080 pixels
  16. Display aspect ratio                     : 16:9
  17. Frame rate mode                          : Constant
  18. Frame rate                               : 23.976 (24000/1001/189150) FPS
  19. Color space                              : YUV
  20. Chroma subsampling                       : 4:2:0
  21. Bit depth                                : 8 bits
  22. Scan type                                : Progressive
  23. Bits/(Pixel*Frame)                       : 0.737
  24. Stream size                              : 25.2 GiB (91%)
  25. Language                                 : English
  26. Default                                  : No
  27. Forced                                   : No
  28. Original source medium                   : Blu-ray
  29. Audio
  30. ID                                       : 2
  31. ID in the original source medium         : 4352 (0x1100)
  32. Format                                   : DTS XLL
  33. Format/Info                              : Digital Theater Systems
  34. Commercial name                          : DTS-HD Master Audio
  35. Codec ID                                 : A_DTS
  36. Duration                                 : 1 h 38 min
  37. Bit rate mode                            : Variable
  38. Bit rate                                 : 3 665 kb/s
  39. Channel(s)                               : 6 channels
  40. Channel layout                           : C L R Ls Rs LFE
  41. Sampling rate                            : 48.0 kHz
  42. Frame rate                               : 93.750 FPS (512 SPF)
  43. Bit depth                                : 24 bits
  44. Compression mode                         : Lossless
  45. Stream size                              : 2.52 GiB (9%)
  46. Title                                    : DTS-HD MA 5.1
  47. Language                                 : English
  48. Default                                  : Yes
  49. Forced                                   : No
  50. Original source medium                   : Blu-ray
  51. Text #1
  52. ID                                       : 3
  53. Format                                   : UTF-8
  54. Codec ID                                 : S_TEXT/UTF8
  55. Codec ID/Info                            : UTF-8 Plain Text
  56. Duration                                 : 1 h 29 min
  57. Bit rate                                 : 47 b/s
  58. Count of elements                        : 965
  59. Stream size                              : 31.3 KiB (0%)
  60. Language                                 : English
  61. Default                                  : Yes
  62. Forced                                   : No
  63. Text #2
  64. ID                                       : 4
  65. Format                                   : UTF-8
  66. Codec ID                                 : S_TEXT/UTF8
  67. Codec ID/Info                            : UTF-8 Plain Text
  68. Duration                                 : 1 h 29 min
  69. Bit rate                                 : 54 b/s
  70. Count of elements                        : 1136
  71. Stream size                              : 36.1 KiB (0%)
  72. Title                                    : SDH
  73. Language                                 : English
  74. Default                                  : No
  75. Forced                                   : No
  76. Text #3
  77. ID                                       : 5
  78. ID in the original source medium         : 4608 (0x1200)
  79. Format                                   : PGS
  80. Muxing mode                              : zlib
  81. Codec ID                                 : S_HDMV/PGS
  82. Codec ID/Info                            : Picture based subtitle format used on BDs/HD-DVDs
  83. Duration                                 : 1 h 29 min
  84. Bit rate                                 : 38.0 kb/s
  85. Count of elements                        : 2296
  86. Stream size                              : 24.4 MiB (0%)
  87. Language                                 : English
  88. Default                                  : No
  89. Forced                                   : No
  90. Original source medium                   : Blu-ray
  91. Text #4
  92. ID                                       : 6
  93. ID in the original source medium         : 4609 (0x1201)
  94. Format                                   : PGS
  95. Muxing mode                              : zlib
  96. Codec ID                                 : S_HDMV/PGS
  97. Codec ID/Info                            : Picture based subtitle format used on BDs/HD-DVDs
  98. Duration                                 : 1 h 36 min
  99. Bit rate                                 : 27.0 kb/s
  100. Count of elements                        : 1581
  101. Stream size                              : 18.7 MiB (0%)
  102. Language                                 : Spanish
  103. Default                                  : No
  104. Forced                                   : No
  105. Original source medium                   : Blu-ray
  106. Text #5
  107. ID                                       : 7
  108. ID in the original source medium         : 4610 (0x1202)
  109. Format                                   : PGS
  110. Muxing mode                              : zlib
  111. Codec ID                                 : S_HDMV/PGS
  112. Codec ID/Info                            : Picture based subtitle format used on BDs/HD-DVDs
  113. Duration                                 : 1 h 36 min
  114. Bit rate                                 : 29.8 kb/s
  115. Count of elements                        : 1863
  116. Stream size                              : 20.6 MiB (0%)
  117. Language                                 : French
  118. Default                                  : No
  119. Forced                                   : No
  120. Original source medium                   : Blu-ray
  121. Menu
  122. 00:00:00.000                             : en:Chapter 01
  123. 00:04:28.434                             : en:Chapter 02
  124. 00:09:46.210                             : en:Chapter 03
  125. 00:15:20.461                             : en:Chapter 04
  126. 00:19:23.871                             : en:Chapter 05
  127. 00:22:44.446                             : en:Chapter 06
  128. 00:28:20.115                             : en:Chapter 07
  129. 00:33:42.854                             : en:Chapter 08
  130. 00:39:54.475                             : en:Chapter 09
  131. 00:45:05.035                             : en:Chapter 10
  132. 00:51:00.557                             : en:Chapter 11
  133. 00:53:13.857                             : en:Chapter 12
  134. 00:58:31.216                             : en:Chapter 13
  135. 01:03:16.417                             : en:Chapter 14
  136. 01:06:53.384                             : en:Chapter 15
  137. 01:11:26.490                             : en:Chapter 16
  138. 01:17:08.332                             : en:Chapter 17
  139. 01:20:00.128                             : en:Chapter 18
  140. 01:24:00.160                             : en:Chapter 19
  141. 01:29:51.469                             : en:Chapter 20
复制代码



4K321提示您 点击下方附件即可下载

日月人鱼 The.Kings.Daughter.2022.1080p.BluRay.REMUX.AVC.DTS-HD.MA.5.1-FGT 27.72GB

The.Kings.Daughter.2022.1080p.BluRay.REMUX.AVC.DTS-HD.MA.5.1-FGT.torrent ( 35.29 KB )

回复

使用道具 举报

全部回复0 显示全部楼层

声明:您在社区发表的所有信息仅代表用户个人观点,与本网站立场无关,希望各位烧友理性发言,不发表违法国家法律禁止的话题。

您需要登录后才可以回帖 登录 | 立即注册

本版积分规则

联系客服 关注微信 下载APP 返回顶部 返回列表