开启左侧

[动作片] 火药奶昔 Gunpowder.Milkshake.2021.1080p.BluRay.REMUX.AVC.DTS-HD.MA.TrueHD.7.1.Atmos-FGT 35.01GB

蓝鸟 发表于 2022-6-2 17:38:56 | 显示全部楼层 |阅读模式

火药奶昔 Gunpowder.Milkshake.2021.1080p.BluRay.REMUX.AVC.DTS-HD.MA.TrueHD.7.1.Atmos-FGT 35.01GB

火药奶昔 Gunpowder.Milkshake.2021.1080p.BluRay.REMUX.AVC.DTS-HD.MA.TrueHD.7.1.Atmos-FGT 35.01GB


译  名 火药奶昔 / 血客联盟(台) / Bloody Milkshake
片  名 Gunpowder Milkshake
年  代 2021
产  地 法国 / 美国 / 德国
类  别 动作 / 惊悚 / 冒险
语  言 英语
上映日期 2021-07-14(美国)
豆瓣评分 5.7/10 (6340人评价)
片  长 114分钟
导  演 纳沃特·帕普莎多 Navot Papushado
编  剧 纳沃特·帕普莎多 Navot Papushado
演  员 凯伦·吉兰 Karen Gillan
       琳娜·海蒂 Lena Headey
       卡拉·古奇诺 Carla Gugino
       杨紫琼 Michelle Yeoh
       安吉拉·贝塞特 Angela Bassett
       保罗·吉亚玛提 Paul Giamatti
       拉尔夫·伊内森 Ralph Ineson
       弗蕾娅·艾伦 Freya Allan
       克洛伊·科尔曼 Chloe Coleman
       罗伯特?马瑟 Robert Maaser
       亚当·那加提斯 Adam Nagaitis
       塞缪尔·安德森 Samuel Anderson
       乔梅杨 Mai Duong Kieu
       杰克·班戴拉 Jack Bandeira
       约书亚·格罗斯 Joshua Grothe
       艾德·伯奇 Ed Birch
       大卫·齐梅尔席德 David Zimmerschied
       安妮塔·欧拉藤吉 Anita Olatunji
       乔安娜·波宾 Joanna Bobin
       迈克尔·塞瑞岑 Michael Seresin
       Louise Frogley Louise Frogley

简  介

萨姆(凯伦·吉兰饰)的母亲斯卡利特(琳娜·海蒂饰)是一名精英刺客,当萨姆被迫与母亲分开时,她只有 12 岁。萨姆由 The Firm 抚养长大,这是她母亲为之工作的无情犯罪集团。现在,15 年过去了,萨姆跟随母亲的脚步,成长为一名作风凌厉的女杀手。她用自己的“才能”来收拾 The Firm 最危险的烂摊子,既能干又忠诚。但是,当高风险工作出问题时,萨姆必须选择继续效忠 The Firm,还是保护无辜的 8 岁女孩埃米莉(克洛伊·科尔曼饰)的生命。萨姆成为了被追杀的对象,现在她只有一次生存的机会:与她的母亲和其他女杀手“图书管理员”(杨紫琼、安吉拉·贝塞特和卡拉·古奇诺饰)团聚。这三代女性现在必须学会彼此信任,勇敢地对抗 The Firm 及爪牙大军,奋起反抗那些可以夺走她们一切的人。


影片参数
  1. Video
  2. ID                                       : 1
  3. ID in the original source medium         : 4113 (0x1011)
  4. Format                                   : AVC
  5. Format/Info                              : Advanced Video Codec
  6. Format profile                           : [email protected]
  7. Format settings                          : CABAC / 4 Ref Frames
  8. Format settings, CABAC                   : Yes
  9. Format settings, Reference frames        : 4 frames
  10. Codec ID                                 : V_MPEG4/ISO/AVC
  11. Duration                                 : 1 h 54 min
  12. Bit rate mode                            : Variable
  13. Bit rate                                 : 31.9 Mb/s
  14. Maximum bit rate                         : 35.0 Mb/s
  15. Width                                    : 1 920 pixels
  16. Height                                   : 1 080 pixels
  17. Display aspect ratio                     : 16:9
  18. Frame rate mode                          : Constant
  19. Frame rate                               : 24.000 FPS
  20. Color space                              : YUV
  21. Chroma subsampling                       : 4:2:0
  22. Bit depth                                : 8 bits
  23. Scan type                                : Progressive
  24. Bits/(Pixel*Frame)                       : 0.640
  25. Stream size                              : 25.5 GiB (73%)
  26. Language                                 : English
  27. Default                                  : No
  28. Forced                                   : No
  29. Original source medium                   : Blu-ray
  30. Audio #1
  31. ID                                       : 2
  32. ID in the original source medium         : 4353 (0x1101)
  33. Format                                   : MLP FBA 16-ch
  34. Format/Info                              : Meridian Lossless Packing FBA with 16-channel presentation
  35. Commercial name                          : Dolby TrueHD with Dolby Atmos
  36. Codec ID                                 : A_TRUEHD
  37. Duration                                 : 1 h 54 min
  38. Bit rate mode                            : Variable
  39. Bit rate                                 : 3 334 kb/s
  40. Maximum bit rate                         : 5 103 kb/s
  41. Channel(s)                               : 8 channels
  42. Channel layout                           : L R C LFE Ls Rs Lb Rb
  43. Sampling rate                            : 48.0 kHz
  44. Frame rate                               : 1 200.000 FPS (40 SPF)
  45. Bit depth                                : 24 bits
  46. Compression mode                         : Lossless
  47. Stream size                              : 2.67 GiB (8%)
  48. Title                                    : TrueHD 7.1 Atmos
  49. Language                                 : English
  50. Default                                  : Yes
  51. Forced                                   : No
  52. Original source medium                   : Blu-ray
  53. Number of dynamic objects                : 13
  54. Bed channel count                        : 1 channel
  55. Bed channel configuration                : LFE
  56. Audio #2
  57. ID                                       : 3
  58. Format                                   : DTS XLL
  59. Format/Info                              : Digital Theater Systems
  60. Commercial name                          : DTS-HD Master Audio
  61. Codec ID                                 : A_DTS
  62. Duration                                 : 1 h 54 min
  63. Bit rate mode                            : Variable
  64. Bit rate                                 : 3 745 kb/s
  65. Channel(s)                               : 8 channels
  66. Channel layout                           : C L R LFE Lb Rb Lss Rss
  67. Sampling rate                            : 48.0 kHz
  68. Frame rate                               : 93.750 FPS (512 SPF)
  69. Bit depth                                : 24 bits
  70. Compression mode                         : Lossless
  71. Stream size                              : 3.00 GiB (9%)
  72. Title                                    : DTS-HD MA 7.1
  73. Language                                 : English
  74. Default                                  : No
  75. Forced                                   : No
  76. Audio #3
  77. ID                                       : 4
  78. ID in the original source medium         : 4353 (0x1101)
  79. Format                                   : AC-3
  80. Format/Info                              : Audio Coding 3
  81. Commercial name                          : Dolby Digital
  82. Codec ID                                 : A_AC3
  83. Duration                                 : 1 h 54 min
  84. Bit rate mode                            : Constant
  85. Bit rate                                 : 640 kb/s
  86. Channel(s)                               : 6 channels
  87. Channel layout                           : L R C LFE Ls Rs
  88. Sampling rate                            : 48.0 kHz
  89. Frame rate                               : 31.250 FPS (1536 SPF)
  90. Compression mode                         : Lossy
  91. Stream size                              : 525 MiB (1%)
  92. Title                                    : DD 5.1
  93. Language                                 : English
  94. Service kind                             : Complete Main
  95. Default                                  : No
  96. Forced                                   : No
  97. Original source medium                   : Blu-ray
  98. Audio #4
  99. ID                                       : 5
  100. ID in the original source medium         : 4352 (0x1100)
  101. Format                                   : MLP FBA 16-ch
  102. Format/Info                              : Meridian Lossless Packing FBA with 16-channel presentation
  103. Commercial name                          : Dolby TrueHD with Dolby Atmos
  104. Codec ID                                 : A_TRUEHD
  105. Duration                                 : 1 h 54 min
  106. Bit rate mode                            : Variable
  107. Bit rate                                 : 3 355 kb/s
  108. Maximum bit rate                         : 5 157 kb/s
  109. Channel(s)                               : 8 channels
  110. Channel layout                           : L R C LFE Ls Rs Lb Rb
  111. Sampling rate                            : 48.0 kHz
  112. Frame rate                               : 1 200.000 FPS (40 SPF)
  113. Bit depth                                : 24 bits
  114. Compression mode                         : Lossless
  115. Stream size                              : 2.69 GiB (8%)
  116. Title                                    : TrueHD 7.1 Atmos
  117. Language                                 : German
  118. Default                                  : No
  119. Forced                                   : No
  120. Original source medium                   : Blu-ray
  121. Number of dynamic objects                : 13
  122. Bed channel count                        : 1 channel
  123. Bed channel configuration                : LFE
  124. Audio #5
  125. ID                                       : 6
  126. ID in the original source medium         : 4352 (0x1100)
  127. Format                                   : AC-3
  128. Format/Info                              : Audio Coding 3
  129. Commercial name                          : Dolby Digital
  130. Codec ID                                 : A_AC3
  131. Duration                                 : 1 h 54 min
  132. Bit rate mode                            : Constant
  133. Bit rate                                 : 640 kb/s
  134. Channel(s)                               : 6 channels
  135. Channel layout                           : L R C LFE Ls Rs
  136. Sampling rate                            : 48.0 kHz
  137. Frame rate                               : 31.250 FPS (1536 SPF)
  138. Compression mode                         : Lossy
  139. Stream size                              : 525 MiB (1%)
  140. Title                                    : DD 5.1
  141. Language                                 : German
  142. Service kind                             : Complete Main
  143. Default                                  : No
  144. Forced                                   : No
  145. Original source medium                   : Blu-ray
  146. Text #1
  147. ID                                       : 7
  148. Format                                   : UTF-8
  149. Codec ID                                 : S_TEXT/UTF8
  150. Codec ID/Info                            : UTF-8 Plain Text
  151. Duration                                 : 1 s 959 ms
  152. Bit rate                                 : 57 b/s
  153. Count of elements                        : 1
  154. Stream size                              : 14.0 Bytes (0%)
  155. Title                                    : FORCED
  156. Language                                 : English
  157. Default                                  : No
  158. Forced                                   : Yes
  159. Text #2
  160. ID                                       : 8
  161. Format                                   : UTF-8
  162. Codec ID                                 : S_TEXT/UTF8
  163. Codec ID/Info                            : UTF-8 Plain Text
  164. Duration                                 : 1 h 49 min
  165. Bit rate                                 : 37 b/s
  166. Count of elements                        : 1092
  167. Stream size                              : 30.2 KiB (0%)
  168. Language                                 : English
  169. Default                                  : Yes
  170. Forced                                   : No
  171. Text #3
  172. ID                                       : 9
  173. Format                                   : UTF-8
  174. Codec ID                                 : S_TEXT/UTF8
  175. Codec ID/Info                            : UTF-8 Plain Text
  176. Duration                                 : 1 h 53 min
  177. Bit rate                                 : 49 b/s
  178. Count of elements                        : 1557
  179. Stream size                              : 41.6 KiB (0%)
  180. Title                                    : SDH
  181. Language                                 : English
  182. Default                                  : No
  183. Forced                                   : No
  184. Text #4
  185. ID                                       : 10
  186. ID in the original source medium         : 4608 (0x1200)
  187. Format                                   : PGS
  188. Muxing mode                              : zlib
  189. Codec ID                                 : S_HDMV/PGS
  190. Codec ID/Info                            : Picture based subtitle format used on BDs/HD-DVDs
  191. Duration                                 : 1 h 47 min
  192. Bit rate                                 : 18.4 kb/s
  193. Count of elements                        : 1720
  194. Stream size                              : 14.2 MiB (0%)
  195. Language                                 : German
  196. Default                                  : No
  197. Forced                                   : No
  198. Original source medium                   : Blu-ray
  199. Text #5
  200. ID                                       : 11
  201. ID in the original source medium         : 4609 (0x1201)
  202. Format                                   : PGS
  203. Muxing mode                              : zlib
  204. Codec ID                                 : S_HDMV/PGS
  205. Codec ID/Info                            : Picture based subtitle format used on BDs/HD-DVDs
  206. Duration                                 : 1 h 10 min
  207. Bit rate                                 : 128 b/s
  208. Count of elements                        : 10
  209. Stream size                              : 66.7 KiB (0%)
  210. Language                                 : German
  211. Default                                  : No
  212. Forced                                   : No
  213. Original source medium                   : Blu-ray
  214. Text #6
  215. ID                                       : 12
  216. ID in the original source medium         : 4609 (0x1201)
  217. Format                                   : PGS
  218. Muxing mode                              : zlib
  219. Codec ID                                 : S_HDMV/PGS
  220. Codec ID/Info                            : Picture based subtitle format used on BDs/HD-DVDs
  221. Duration                                 : 1 h 10 min
  222. Bit rate                                 : 128 b/s
  223. Count of elements                        : 10
  224. Stream size                              : 66.7 KiB (0%)
  225. Language                                 : German
  226. Default                                  : No
  227. Forced                                   : No
  228. Original source medium                   : Blu-ray
  229. Menu
  230. 00:00:00.000                             : en:Chapter 01
  231. 00:09:00.375                             : en:Chapter 02
  232. 00:19:00.375                             : en:Chapter 03
  233. 00:28:08.541                             : en:Chapter 04
  234. 00:38:39.000                             : en:Chapter 05
  235. 00:49:54.708                             : en:Chapter 06
  236. 00:58:43.541                             : en:Chapter 07
  237. 01:07:56.166                             : en:Chapter 08
  238. 01:19:35.625                             : en:Chapter 09
  239. 01:30:27.208                             : en:Chapter 10
  240. 01:40:39.416                             : en:Chapter 11
  241. 01:49:02.000                             : en:Chapter 12
复制代码



4K321提示您 点击下方附件即可下载

火药奶昔 Gunpowder.Milkshake.2021.1080p.BluRay.REMUX.AVC.DTS-HD.MA.TrueHD.7.1.Atmos-FGT 35.01GB

Gunpowder.Milkshake.2021.1080p.BluRay.REMUX.AVC.DTS-HD.MA.TrueHD.7.1.Atmos-FGT.torrent ( 44.44 KB )

回复

使用道具 举报

全部回复0 显示全部楼层

声明:您在社区发表的所有信息仅代表用户个人观点,与本网站立场无关,希望各位烧友理性发言,不发表违法国家法律禁止的话题。

您需要登录后才可以回帖 登录 | 立即注册

本版积分规则

联系客服 关注微信 下载APP 返回顶部 返回列表