开启左侧

[剧情片] 堕落街 Christiane.F.1981.GERMAN.REMASTERED.1080p.BluRay.REMUX.AVC.DTS-HD.MA.5.1-FGT 30.83GB

蓝鸟 发表于 2022-6-2 17:37:43 | 显示全部楼层 |阅读模式

堕落街 Christiane.F.1981.GERMAN.REMASTERED.1080p.BluRay.REMUX.AVC.DTS-HD.MA.5.1-FGT 30.83GB

堕落街 Christiane.F.1981.GERMAN.REMASTERED.1080p.BluRay.REMUX.AVC.DTS-HD.MA.5.1-FGT 30.83GB


译  名 堕落街 / 一个少女的自白 / We Children from Bahnhof Zoo
片  名 Christiane F. - Wir Kinder vom Bahnhof Zoo
年  代 1981
产  地 西德
类  别 剧情 / 传记
语  言 德语
上映日期 1981-04-02
豆瓣评分 7.8/10 (4350人评价)
片  长 138 分钟
导  演 乌利·埃德尔 Uli Edel
编  剧 乌利·埃德尔 Uli Edel
       赫尔曼·魏格尔 Herman Weigel
演  员 娜娅·布鲁克霍斯特 Natja Brunckhorst
       Eberhard Auriga Eberhard Auriga
       大卫·鲍伊 David Bowie
       Christiane Felscherinow Christiane Felscherinow
       贝尔恩德·艾辛格 Bernd Eichinger
       于尔根·柯尼帕 Jürgen Knieper
       于尔根·俞格斯 Jürgen Jürges
       Rainer Schaper Rainer Schaper
       科林·亚瑟 Colin Arthur

简  介

本片背景为20世纪70年代的德国,讲述了一名14岁的少女从吸毒到卖淫,一步步走向堕落的故事。                                    
                                未满14岁的克里斯蒂安娜(娜娅·布鲁克霍斯特 Natja Brunckhorst 饰)来自一个离异家庭,她和母亲妹妹一同生活在西柏林一家公寓里。当时的年轻人都到当地一家迪斯科“Sound”里玩,在朋友的陪同下,未成年的她也进入了这个迷幻世界。在这里,她认识了少年德特勒夫和他的朋友们。夜里,他们一群人常常一起流连街头,渐渐地,她爱上了德特勒夫,还尝试和他一起吸食迷幻剂。为了搞到买毒品的钱,德特勒夫会到一个叫“动物园”的地方物色对象进行卖淫。克里斯蒂安娜一开始不愿意德特勒夫做这种事,后来她自己也开始注射毒品,也开始到“动物园”里来。少女克里斯蒂安娜,一步步走向迷幻堕落的深渊……                                    
                                本片根据少女克里斯蒂安娜·F的亲身经历改编。


影片参数
  1. Video
  2. ID                                       : 1
  3. ID in the original source medium         : 4113 (0x1011)
  4. Format                                   : AVC
  5. Format/Info                              : Advanced Video Codec
  6. Format profile                           : [email protected]
  7. Format settings                          : CABAC / 3 Ref Frames
  8. Format settings, CABAC                   : Yes
  9. Format settings, Reference frames        : 3 frames
  10. Codec ID                                 : V_MPEG4/ISO/AVC
  11. Duration                                 : 2 h 10 min
  12. Bit rate mode                            : Variable
  13. Bit rate                                 : 30.0 Mb/s
  14. Maximum bit rate                         : 35.0 Mb/s
  15. Width                                    : 1 920 pixels
  16. Height                                   : 1 080 pixels
  17. Display aspect ratio                     : 16:9
  18. Frame rate mode                          : Constant
  19. Frame rate                               : 24.000 FPS
  20. Color space                              : YUV
  21. Chroma subsampling                       : 4:2:0
  22. Bit depth                                : 8 bits
  23. Scan type                                : Progressive
  24. Bits/(Pixel*Frame)                       : 0.603
  25. Stream size                              : 27.3 GiB (88%)
  26. Writing library                          : x264 core 164 r3075 66a5bc1
  27. Encoding settings                        : cabac=1 / ref=4 / deblock=1:0:0 / analyse=0x3:0x113 / me=hex / subme=8 / psy=1 / psy_rd=1.00:0.00 / mixed_ref=1 / me_range=16 / chroma_me=1 / trellis=2 / 8x8dct=1 / cqm=0 / deadzone=21,11 / fast_pskip=1 / chroma_qp_offset=-2 / threads=18 / lookahead_threads=3 / sliced_threads=0 / slices=4 / nr=0 / decimate=1 / interlaced=0 / bluray_compat=1 / constrained_intra=0 / bframes=3 / b_pyramid=1 / b_adapt=1 / b_bias=0 / direct=3 / weightb=1 / open_gop=1 / weightp=1 / keyint=24 / keyint_min=1 / scenecut=40 / intra_refresh=0 / rc_lookahead=24 / rc=2pass / mbtree=1 / bitrate=30000 / ratetol=1.0 / qcomp=0.60 / qpmin=0 / qpmax=69 / qpstep=4 / cplxblur=20.0 / qblur=0.5 / vbv_maxrate=35000 / vbv_bufsize=30000 / nal_hrd=vbr / filler=0 / ip_ratio=1.40 / aq=1:1.00
  28. Language                                 : English
  29. Default                                  : No
  30. Forced                                   : No
  31. Color range                              : Limited
  32. Color primaries                          : BT.709
  33. Transfer characteristics                 : BT.709
  34. Matrix coefficients                      : BT.709
  35. Original source medium                   : Blu-ray
  36. Audio #1
  37. ID                                       : 2
  38. ID in the original source medium         : 4353 (0x1101)
  39. Format                                   : DTS XLL
  40. Format/Info                              : Digital Theater Systems
  41. Commercial name                          : DTS-HD Master Audio
  42. Codec ID                                 : A_DTS
  43. Duration                                 : 2 h 10 min
  44. Bit rate mode                            : Variable
  45. Bit rate                                 : 1 976 kb/s
  46. Channel(s)                               : 6 channels
  47. Channel layout                           : C L R Ls Rs LFE
  48. Sampling rate                            : 48.0 kHz
  49. Frame rate                               : 93.750 FPS (512 SPF)
  50. Bit depth                                : 16 bits
  51. Compression mode                         : Lossless
  52. Stream size                              : 1.81 GiB (6%)
  53. Title                                    : DTS-HD MA 5.1
  54. Language                                 : German
  55. Default                                  : Yes
  56. Forced                                   : No
  57. Original source medium                   : Blu-ray
  58. Audio #2
  59. ID                                       : 3
  60. ID in the original source medium         : 4352 (0x1100)
  61. Format                                   : DTS XLL
  62. Format/Info                              : Digital Theater Systems
  63. Commercial name                          : DTS-HD Master Audio
  64. Codec ID                                 : A_DTS
  65. Duration                                 : 2 h 10 min
  66. Bit rate mode                            : Variable
  67. Bit rate                                 : 927 kb/s
  68. Channel(s)                               : 2 channels
  69. Channel layout                           : L R
  70. Sampling rate                            : 48.0 kHz
  71. Frame rate                               : 93.750 FPS (512 SPF)
  72. Bit depth                                : 16 bits
  73. Compression mode                         : Lossless
  74. Stream size                              : 868 MiB (3%)
  75. Title                                    : DTS-HD MA 2.0
  76. Language                                 : German
  77. Default                                  : No
  78. Forced                                   : No
  79. Original source medium                   : Blu-ray
  80. Audio #3
  81. ID                                       : 4
  82. ID in the original source medium         : 4354 (0x1102)
  83. Format                                   : DTS XLL
  84. Format/Info                              : Digital Theater Systems
  85. Commercial name                          : DTS-HD Master Audio
  86. Codec ID                                 : A_DTS
  87. Duration                                 : 2 h 10 min
  88. Bit rate mode                            : Variable
  89. Bit rate                                 : 960 kb/s
  90. Channel(s)                               : 2 channels
  91. Channel layout                           : L R
  92. Sampling rate                            : 48.0 kHz
  93. Frame rate                               : 93.750 FPS (512 SPF)
  94. Bit depth                                : 16 bits
  95. Compression mode                         : Lossless
  96. Stream size                              : 899 MiB (3%)
  97. Title                                    : DTS-HD MA 2.0
  98. Language                                 : German
  99. Default                                  : No
  100. Forced                                   : No
  101. Original source medium                   : Blu-ray
  102. Text #1
  103. ID                                       : 5
  104. Format                                   : UTF-8
  105. Codec ID                                 : S_TEXT/UTF8
  106. Codec ID/Info                            : UTF-8 Plain Text
  107. Duration                                 : 2 h 8 min
  108. Bit rate                                 : 14 b/s
  109. Count of elements                        : 468
  110. Stream size                              : 13.9 KiB (0%)
  111. Language                                 : English
  112. Default                                  : Yes
  113. Forced                                   : No
  114. Text #2
  115. ID                                       : 6
  116. ID in the original source medium         : 4608 (0x1200)
  117. Format                                   : PGS
  118. Muxing mode                              : zlib
  119. Codec ID                                 : S_HDMV/PGS
  120. Codec ID/Info                            : Picture based subtitle format used on BDs/HD-DVDs
  121. Duration                                 : 2 h 10 min
  122. Bit rate                                 : 15.6 kb/s
  123. Count of elements                        : 1846
  124. Stream size                              : 14.6 MiB (0%)
  125. Language                                 : German
  126. Default                                  : No
  127. Forced                                   : No
  128. Original source medium                   : Blu-ray
  129. Text #3
  130. ID                                       : 7
  131. ID in the original source medium         : 4609 (0x1201)
  132. Format                                   : PGS
  133. Muxing mode                              : zlib
  134. Codec ID                                 : S_HDMV/PGS
  135. Codec ID/Info                            : Picture based subtitle format used on BDs/HD-DVDs
  136. Duration                                 : 2 h 8 min
  137. Bit rate                                 : 7 620 b/s
  138. Count of elements                        : 936
  139. Stream size                              : 7.01 MiB (0%)
  140. Language                                 : English
  141. Default                                  : No
  142. Forced                                   : No
  143. Original source medium                   : Blu-ray
  144. Menu
  145. 00:00:00.000                             : en:Chapter 01
  146. 00:10:58.208                             : en:Chapter 02
  147. 00:26:44.458                             : en:Chapter 03
  148. 00:34:59.666                             : en:Chapter 04
  149. 00:42:44.250                             : en:Chapter 05
  150. 00:55:50.708                             : en:Chapter 06
  151. 01:02:26.083                             : en:Chapter 07
  152. 01:12:50.875                             : en:Chapter 08
  153. 01:19:56.250                             : en:Chapter 09
  154. 01:31:27.416                             : en:Chapter 10
  155. 01:38:30.833                             : en:Chapter 11
  156. 01:54:46.875                             : en:Chapter 12
  157. 02:08:44.791                             : en:Chapter 13
复制代码



4K321提示您 点击下方附件即可下载

堕落街 Christiane.F.1981.GERMAN.REMASTERED.1080p.BluRay.REMUX.AVC.DTS-HD.MA.5.1-FGT 30.83GB

Christiane.F.1981.GERMAN.REMASTERED.1080p.BluRay.REMUX.AVC.DTS-HD.MA.5.1-FGT.torrent ( 39.22 KB )

回复

使用道具 举报

全部回复0 显示全部楼层

声明:您在社区发表的所有信息仅代表用户个人观点,与本网站立场无关,希望各位烧友理性发言,不发表违法国家法律禁止的话题。

您需要登录后才可以回帖 登录 | 立即注册

本版积分规则

联系客服 关注微信 下载APP 返回顶部 返回列表