开启左侧

[悬疑片] 午夜 Midnight.2021.KOREAN.1080p.BluRay.REMUX.AVC.DTS-HD.MA.5.1-FGT 26.43GB

蓝鸟 发表于 2022-6-2 17:36:53 | 显示全部楼层 |阅读模式


译  名 午夜 / Midnight
片  名 ?????
年  代 2021
产  地 韩国
类  别 悬疑 / 惊悚
语  言 韩语
上映日期 2021-06-30(韩国)
豆瓣评分 5.8/10 (2996人评价)
片  长 103分钟
导  演 权吾胜 Oh-seung Kwon
编  剧 权吾胜 Oh-seung Kwon
演  员 秦基周 Ki-joo Jin
       魏嘏隽 Ha-joon Wi
       朴勋 Park Hoon
       吉海妍 Hae-yeon Gil
       金惠奫 Hye-yoon Kim
       金仁宇 In-woo Kim
       朴智勋 Park Ji-hoon
       千仁书 Chun In Seo

简  介

该片讲述的是一名在客服中心工作的聋哑人“京美”(秦基周 饰)在午夜偶然遇到连环杀人魔“度植”(魏化儁 饰)而展开的深夜追击战。


影片参数
  1. Video
  2. ID                                       : 1
  3. ID in the original source medium         : 4113 (0x1011)
  4. Format                                   : AVC
  5. Format/Info                              : Advanced Video Codec
  6. Format profile                           : [email protected]
  7. Format settings                          : CABAC / 4 Ref Frames
  8. Format settings, CABAC                   : Yes
  9. Format settings, Reference frames        : 4 frames
  10. Codec ID                                 : V_MPEG4/ISO/AVC
  11. Duration                                 : 1 h 43 min
  12. Bit rate mode                            : Constant
  13. Bit rate                                 : 33.1 Mb/s
  14. Nominal bit rate                         : 35.0 Mb/s
  15. Width                                    : 1 920 pixels
  16. Height                                   : 1 080 pixels
  17. Display aspect ratio                     : 16:9
  18. Frame rate mode                          : Constant
  19. Frame rate                               : 23.976 (24000/1001/189150) FPS
  20. Color space                              : YUV
  21. Chroma subsampling                       : 4:2:0
  22. Bit depth                                : 8 bits
  23. Scan type                                : Progressive
  24. Bits/(Pixel*Frame)                       : 0.666
  25. Stream size                              : 23.9 GiB (90%)
  26. Language                                 : English
  27. Default                                  : No
  28. Forced                                   : No
  29. Color range                              : Limited
  30. Color primaries                          : BT.709
  31. Transfer characteristics                 : BT.709
  32. Matrix coefficients                      : BT.709
  33. Original source medium                   : Blu-ray
  34. Audio #1
  35. ID                                       : 2
  36. ID in the original source medium         : 4352 (0x1100)
  37. Format                                   : DTS XLL
  38. Format/Info                              : Digital Theater Systems
  39. Commercial name                          : DTS-HD Master Audio
  40. Codec ID                                 : A_DTS
  41. Duration                                 : 1 h 43 min
  42. Bit rate mode                            : Variable
  43. Bit rate                                 : 1 976 kb/s
  44. Channel(s)                               : 6 channels
  45. Channel layout                           : C L R Ls Rs LFE
  46. Sampling rate                            : 48.0 kHz
  47. Frame rate                               : 93.750 FPS (512 SPF)
  48. Bit depth                                : 16 bits
  49. Compression mode                         : Lossless
  50. Stream size                              : 1.43 GiB (5%)
  51. Title                                    : DTS-HD MA 5.1
  52. Language                                 : Korean
  53. Default                                  : Yes
  54. Forced                                   : No
  55. Original source medium                   : Blu-ray
  56. Audio #2
  57. ID                                       : 3
  58. ID in the original source medium         : 4353 (0x1101)
  59. Format                                   : PCM
  60. Format settings                          : Little / Signed
  61. Codec ID                                 : A_PCM/INT/LIT
  62. Duration                                 : 1 h 43 min
  63. Bit rate mode                            : Constant
  64. Bit rate                                 : 1 536 kb/s
  65. Channel(s)                               : 2 channels
  66. Sampling rate                            : 48.0 kHz
  67. Frame rate                               : 30.000 FPS (1600 SPF)
  68. Bit depth                                : 16 bits
  69. Stream size                              : 1.11 GiB (4%)
  70. Title                                    : LPCM 2.0
  71. Language                                 : English
  72. Default                                  : No
  73. Forced                                   : No
  74. Original source medium                   : Blu-ray
  75. Text #1
  76. ID                                       : 4
  77. Format                                   : UTF-8
  78. Codec ID                                 : S_TEXT/UTF8
  79. Codec ID/Info                            : UTF-8 Plain Text
  80. Duration                                 : 1 h 38 min
  81. Bit rate                                 : 29 b/s
  82. Count of elements                        : 875
  83. Stream size                              : 21.0 KiB (0%)
  84. Language                                 : English
  85. Default                                  : Yes
  86. Forced                                   : No
  87. Text #2
  88. ID                                       : 5
  89. ID in the original source medium         : 4608 (0x1200)
  90. Format                                   : PGS
  91. Muxing mode                              : zlib
  92. Codec ID                                 : S_HDMV/PGS
  93. Codec ID/Info                            : Picture based subtitle format used on BDs/HD-DVDs
  94. Duration                                 : 1 h 38 min
  95. Bit rate                                 : 17.6 kb/s
  96. Count of elements                        : 1576
  97. Stream size                              : 12.4 MiB (0%)
  98. Language                                 : English
  99. Default                                  : No
  100. Forced                                   : No
  101. Original source medium                   : Blu-ray
  102. Menu
  103. 00:00:00.000                             : en:Chapter 01
  104. 00:09:52.091                             : en:Chapter 02
  105. 00:19:53.525                             : en:Chapter 03
  106. 00:30:54.686                             : en:Chapter 04
  107. 00:37:58.776                             : en:Chapter 05
  108. 00:50:01.373                             : en:Chapter 06
  109. 00:56:07.822                             : en:Chapter 07
  110. 01:07:45.019                             : en:Chapter 08
  111. 01:20:24.820                             : en:Chapter 09
  112. 01:29:38.498                             : en:Chapter 10
  113. 01:38:42.625                             : en:Chapter 11
复制代码

午夜 Midnight.2021.KOREAN.1080p.BluRay.REMUX.AVC.DTS-HD.MA.5.1-FGT 26.43GB

午夜 Midnight.2021.KOREAN.1080p.BluRay.REMUX.AVC.DTS-HD.MA.5.1-FGT 26.43GB



4K321提示您 点击下方附件即可下载

午夜 Midnight.2021.KOREAN.1080p.BluRay.REMUX.AVC.DTS-HD.MA.5.1-FGT 26.43GB

Midnight.2021.KOREAN.1080p.BluRay.REMUX.AVC.DTS-HD.MA.5.1-FGT.torrent ( 33.69 KB )

回复

使用道具 举报

全部回复0 显示全部楼层

声明:您在社区发表的所有信息仅代表用户个人观点,与本网站立场无关,希望各位烧友理性发言,不发表违法国家法律禁止的话题。

您需要登录后才可以回帖 登录 | 立即注册

本版积分规则

联系客服 关注微信 下载APP 返回顶部 返回列表