开启左侧

[剧情片] 健听女孩 Coda.2021.1080p.BluRay.REMUX.AVC.DTS-HD.MA.5.1-FGT 16.32GB

蓝鸟 发表于 2022-6-2 16:57:16 | 显示全部楼层 |阅读模式

健听女孩 Coda.2021.1080p.BluRay.REMUX.AVC.DTS-HD.MA.5.1-FGT 16.32GB

健听女孩 Coda.2021.1080p.BluRay.REMUX.AVC.DTS-HD.MA.5.1-FGT 16.32GB


译  名 健听女孩 / 乐动心旋律(台) / 贝利叶一家 美国版 / 心之旋律 / 终曲 / Children of Deaf Adults
片  名 CODA
年  代 2021
产  地 美国 / 法国 / 加拿大
类  别 剧情 / 音乐
语  言 美国手语 / 英语
上映日期 2021-01-29(圣丹斯电影节)
豆瓣评分 8.6/10 (61838人评价)
片  长 111分钟
导  演 夏安·海德 Sian Heder
编  剧 夏安·海德 Sian Heder
       维多利亚·贝多斯 Victoria Bedos
       斯坦尼斯拉斯·卡雷·德·马尔博格 Stanislas Carré de Malberg
       艾里克·拉缇戈 Eric Lartigau
       托马斯·彼得葛恩 Thomas Bidegain
演  员 艾米莉亚·琼斯 Emilia Jones
       特洛伊·科特苏尔 Troy Kotsur
       玛丽·玛特琳 Marlee Matlin
       丹尼尔·杜兰特 Daniel Durant
       欧赫尼奥·德尔维斯 Eugenio Derbez
       福迪亚·瓦尔什-匹罗 Ferdia Walsh-Peelo
       艾米·福赛思 Amy Forsyth
       凯文·查普曼 Kevin Chapman
       约翰·菲奥里 John Fiore
       朗尼·法默 Lonnie Farmer
       科特兰·琼斯 Courtland Jones
       莫莉·贝丝·托马斯 Molly Beth Thomas
       阿雅娜·布朗 Ayana Brown
       杰森·普加奇 Jason Pugatch
       基亚娜·法内 Kyana Fanene
       安尼莉·利斯特 Anilee List
       史蒂芬·卡利斯坎 Stephen Caliskan
       何塞·冈斯·阿尔维斯 Jose Guns Alves
       欧文·伯克 Owen Burke
       梅利莎·麦克米金 Melissa McMeekin
       埃里卡·麦克德莫特 Erica McDermott
       玛丽·安·绍布 Mary Ann Schaub
       莎拉·克拉克 Sarah Clarke
       大卫·纽森 David Newsom
       大卫·布肯德尔 David Bookbinder
       理查德·钱德勒 Richard Chandler
       罗布·勒维克 Rob Lévesque
       琪拉·皮查多 Kiara Pichardo
       菲利普·胡瑟莱 Philippe Rousselet  
       法布里斯·吉安费米 Fabrice Gianfermi  
       帕特里克·瓦克斯伯格 Patrick Wachsberger  
       马里乌斯·代·弗里斯 Marius De Vries
       杰里米·伍尔西 Jeremy Woolsey
       黛安·莱德曼 Diane Lederman

简  介

故事聚焦一个聋哑家庭中唯一有听觉的高中女孩鲁比,她每天都要帮助父母和哥哥操持渔业生意,在加入高中合唱团后,鲁比对歌唱的热爱打动了合唱团长,团长决定让鲁比在梦想和家族之间做一个选择。


获奖情况 (共21项)

第94届奥斯卡金像奖 (2022)
  最佳影片
  最佳男配角
   └──特洛伊·科特苏尔
  最佳改编剧本
   └──夏安·海德
  第79届金球奖 (2022)
  电影类 最佳剧情片(提名)
  电影类 最佳男配角(提名)
   └──特洛伊·科特苏尔
  第75届英国电影学院奖 (2022)
  电影奖 最佳女主角(提名)
   └──艾米莉亚·琼斯
  电影奖 最佳男配角
   └──特洛伊·科特苏尔
  电影奖 最佳改编剧本
  第37届圣丹斯电影节 (2021)
  评审团大奖 剧情片
   └──夏安·海德
  观众奖 剧情片
   └──夏安·海德
  导演奖 剧情片
   └──夏安·海德
  第28届美国演员工会奖 (2022)
  电影奖 最佳男配角
   └──特洛伊·科特苏尔
  电影奖 最佳群戏
  第74届美国编剧工会奖 (2022)
  电影奖 最佳改编剧本
   └──夏安·海德
  第27届美国评论家选择电影奖 (2022)
  最佳影片(提名)
  最佳男配角
   └──特洛伊·科特苏尔
  最佳青少年演员(提名)
   └──艾米莉亚·琼斯
  最佳改编剧本(提名)
   └──夏安·海德
  第31届哥谭独立电影奖 (2021)
  最佳配角演出
   └──特洛伊·科特苏尔
  最佳配角演出(提名)
   └──玛丽·玛特琳
  年度突破演员
   └──艾米莉亚·琼斯


影片参数
  1. Video
  2. ID                                       : 1
  3. ID in the original source medium         : 4113 (0x1011)
  4. Format                                   : AVC
  5. Format/Info                              : Advanced Video Codec
  6. Format profile                           : [email protected]
  7. Format settings                          : CABAC / 4 Ref Frames
  8. Format settings, CABAC                   : Yes
  9. Format settings, Reference frames        : 4 frames
  10. Format settings, GOP                     : M=3, N=12
  11. Codec ID                                 : V_MPEG4/ISO/AVC
  12. Duration                                 : 1 h 52 min
  13. Bit rate mode                            : Variable
  14. Bit rate                                 : 16.9 Mb/s
  15. Maximum bit rate                         : 33.0 Mb/s
  16. Width                                    : 1 920 pixels
  17. Height                                   : 1 080 pixels
  18. Display aspect ratio                     : 16:9
  19. Frame rate mode                          : Constant
  20. Frame rate                               : 24.000 FPS
  21. Color space                              : YUV
  22. Chroma subsampling                       : 4:2:0
  23. Bit depth                                : 8 bits
  24. Scan type                                : Progressive
  25. Bits/(Pixel*Frame)                       : 0.339
  26. Stream size                              : 13.2 GiB (81%)
  27. Language                                 : English
  28. Default                                  : No
  29. Forced                                   : No
  30. Original source medium                   : Blu-ray
  31. Audio
  32. ID                                       : 2
  33. ID in the original source medium         : 4353 (0x1101)
  34. Format                                   : DTS XLL
  35. Format/Info                              : Digital Theater Systems
  36. Commercial name                          : DTS-HD Master Audio
  37. Codec ID                                 : A_DTS
  38. Duration                                 : 1 h 52 min
  39. Bit rate mode                            : Variable
  40. Bit rate                                 : 3 966 kb/s
  41. Channel(s)                               : 6 channels
  42. Channel layout                           : C L R Ls Rs LFE
  43. Sampling rate                            : 48.0 kHz
  44. Frame rate                               : 93.750 FPS (512 SPF)
  45. Bit depth                                : 24 bits
  46. Compression mode                         : Lossless
  47. Stream size                              : 3.11 GiB (19%)
  48. Title                                    : DTS-HD MA 5.1
  49. Language                                 : English
  50. Default                                  : Yes
  51. Forced                                   : No
  52. Original source medium                   : Blu-ray
  53. Text #1
  54. ID                                       : 3
  55. Format                                   : UTF-8
  56. Codec ID                                 : S_TEXT/UTF8
  57. Codec ID/Info                            : UTF-8 Plain Text
  58. Duration                                 : 1 h 39 min
  59. Bit rate                                 : 11 b/s
  60. Count of elements                        : 355
  61. Stream size                              : 8.17 KiB (0%)
  62. Title                                    : FORCED
  63. Language                                 : English
  64. Default                                  : No
  65. Forced                                   : Yes
  66. Text #2
  67. ID                                       : 4
  68. Format                                   : UTF-8
  69. Codec ID                                 : S_TEXT/UTF8
  70. Codec ID/Info                            : UTF-8 Plain Text
  71. Duration                                 : 1 h 43 min
  72. Bit rate                                 : 53 b/s
  73. Count of elements                        : 1447
  74. Stream size                              : 40.4 KiB (0%)
  75. Language                                 : English
  76. Default                                  : Yes
  77. Forced                                   : No
  78. Menu
  79. 00:00:00.000                             : en:Chapter 01
  80. 00:08:49.750                             : en:Chapter 02
  81. 00:19:26.625                             : en:Chapter 03
  82. 00:27:56.916                             : en:Chapter 04
  83. 00:37:13.708                             : en:Chapter 05
  84. 00:46:35.750                             : en:Chapter 06
  85. 00:56:19.000                             : en:Chapter 07
  86. 01:05:26.416                             : en:Chapter 08
  87. 01:14:39.750                             : en:Chapter 09
  88. 01:21:09.500                             : en:Chapter 10
  89. 01:32:47.750                             : en:Chapter 11
  90. 01:42:26.916                             : en:Chapter 12
复制代码



4K321提示您 点击下方附件即可下载

健听女孩 Coda.2021.1080p.BluRay.REMUX.AVC.DTS-HD.MA.5.1-FGT 16.32GB

Coda.2021.1080p.BluRay.REMUX.AVC.DTS-HD.MA.5.1-FGT.torrent ( 21.03 KB )

回复

使用道具 举报

全部回复0 显示全部楼层

声明:您在社区发表的所有信息仅代表用户个人观点,与本网站立场无关,希望各位烧友理性发言,不发表违法国家法律禁止的话题。

您需要登录后才可以回帖 登录 | 立即注册

本版积分规则

联系客服 关注微信 下载APP 返回顶部 返回列表