开启左侧

[动作片] 夺命追捕 Pursuit.2022.1080p.BluRay.REMUX.AVC.DTS-HD.MA.5.1-FGT 19.58GB

蓝鸟 发表于 2022-6-2 16:52:03 | 显示全部楼层 |阅读模式

夺命追捕 Pursuit.2022.1080p.BluRay.REMUX.AVC.DTS-HD.MA.5.1-FGT 19.58GB

夺命追捕 Pursuit.2022.1080p.BluRay.REMUX.AVC.DTS-HD.MA.5.1-FGT 19.58GB


译  名 夺命追捕 / 追猎
片  名 PURSUIT
年  代 2022
产  地 美国
类  别 动作
语  言 英语
导  演 布莱恩·斯基巴 Brian Skiba
编  剧 布莱恩·斯基巴 Brian Skiba
演  员 约翰·库萨克 John Cusack
       埃米尔·赫斯基 Emile Hirsch
       威廉姆·卡特 William Katt


影片参数
  1. Video
  2. ID                                       : 1
  3. ID in the original source medium         : 4113 (0x1011)
  4. Format                                   : AVC
  5. Format/Info                              : Advanced Video Codec
  6. Format profile                           : [email protected]
  7. Format settings                          : CABAC / 4 Ref Frames
  8. Format settings, CABAC                   : Yes
  9. Format settings, Reference frames        : 4 frames
  10. Codec ID                                 : V_MPEG4/ISO/AVC
  11. Duration                                 : 1 h 37 min
  12. Bit rate mode                            : Variable
  13. Bit rate                                 : 25.1 Mb/s
  14. Maximum bit rate                         : 37.0 Mb/s
  15. Width                                    : 1 920 pixels
  16. Height                                   : 1 080 pixels
  17. Display aspect ratio                     : 16:9
  18. Frame rate mode                          : Constant
  19. Frame rate                               : 23.976 (24000/1001/189150) FPS
  20. Color space                              : YUV
  21. Chroma subsampling                       : 4:2:0
  22. Bit depth                                : 8 bits
  23. Scan type                                : Progressive
  24. Bits/(Pixel*Frame)                       : 0.505
  25. Stream size                              : 17.0 GiB (87%)
  26. Language                                 : English
  27. Default                                  : No
  28. Forced                                   : No
  29. Original source medium                   : Blu-ray
  30. Audio
  31. ID                                       : 2
  32. ID in the original source medium         : 4352 (0x1100)
  33. Format                                   : DTS XLL
  34. Format/Info                              : Digital Theater Systems
  35. Commercial name                          : DTS-HD Master Audio
  36. Codec ID                                 : A_DTS
  37. Duration                                 : 1 h 37 min
  38. Bit rate mode                            : Variable
  39. Bit rate                                 : 3 724 kb/s
  40. Channel(s)                               : 6 channels
  41. Channel layout                           : C L R Ls Rs LFE
  42. Sampling rate                            : 48.0 kHz
  43. Frame rate                               : 93.750 FPS (512 SPF)
  44. Bit depth                                : 24 bits
  45. Compression mode                         : Lossless
  46. Stream size                              : 2.53 GiB (13%)
  47. Title                                    : DTS-HD MA 5.1
  48. Language                                 : English
  49. Default                                  : Yes
  50. Forced                                   : No
  51. Original source medium                   : Blu-ray
  52. Text #1
  53. ID                                       : 3
  54. Format                                   : UTF-8
  55. Codec ID                                 : S_TEXT/UTF8
  56. Codec ID/Info                            : UTF-8 Plain Text
  57. Duration                                 : 1 h 29 min
  58. Bit rate                                 : 35 b/s
  59. Count of elements                        : 817
  60. Stream size                              : 23.6 KiB (0%)
  61. Language                                 : English
  62. Default                                  : Yes
  63. Forced                                   : No
  64. Text #2
  65. ID                                       : 4
  66. Format                                   : UTF-8
  67. Codec ID                                 : S_TEXT/UTF8
  68. Codec ID/Info                            : UTF-8 Plain Text
  69. Duration                                 : 1 h 30 min
  70. Bit rate                                 : 42 b/s
  71. Count of elements                        : 1013
  72. Stream size                              : 28.0 KiB (0%)
  73. Title                                    : SDH
  74. Language                                 : English
  75. Default                                  : No
  76. Forced                                   : No
  77. Text #3
  78. ID                                       : 5
  79. ID in the original source medium         : 4608 (0x1200)
  80. Format                                   : PGS
  81. Muxing mode                              : zlib
  82. Codec ID                                 : S_HDMV/PGS
  83. Codec ID/Info                            : Picture based subtitle format used on BDs/HD-DVDs
  84. Duration                                 : 1 h 31 min
  85. Bit rate                                 : 26.5 kb/s
  86. Count of elements                        : 2132
  87. Stream size                              : 17.3 MiB (0%)
  88. Language                                 : English
  89. Default                                  : No
  90. Forced                                   : No
  91. Original source medium                   : Blu-ray
  92. Text #4
  93. ID                                       : 6
  94. ID in the original source medium         : 4609 (0x1201)
  95. Format                                   : PGS
  96. Muxing mode                              : zlib
  97. Codec ID                                 : S_HDMV/PGS
  98. Codec ID/Info                            : Picture based subtitle format used on BDs/HD-DVDs
  99. Duration                                 : 1 h 34 min
  100. Bit rate                                 : 22.3 kb/s
  101. Count of elements                        : 1748
  102. Stream size                              : 15.1 MiB (0%)
  103. Language                                 : Spanish
  104. Default                                  : No
  105. Forced                                   : No
  106. Original source medium                   : Blu-ray
  107. Text #5
  108. ID                                       : 7
  109. ID in the original source medium         : 4610 (0x1202)
  110. Format                                   : PGS
  111. Muxing mode                              : zlib
  112. Codec ID                                 : S_HDMV/PGS
  113. Codec ID/Info                            : Picture based subtitle format used on BDs/HD-DVDs
  114. Duration                                 : 1 h 34 min
  115. Bit rate                                 : 19.8 kb/s
  116. Count of elements                        : 1694
  117. Stream size                              : 13.4 MiB (0%)
  118. Language                                 : French
  119. Default                                  : No
  120. Forced                                   : No
  121. Original source medium                   : Blu-ray
  122. Text #6
  123. ID                                       : 8
  124. ID in the original source medium         : 4611 (0x1203)
  125. Format                                   : PGS
  126. Muxing mode                              : zlib
  127. Codec ID                                 : S_HDMV/PGS
  128. Codec ID/Info                            : Picture based subtitle format used on BDs/HD-DVDs
  129. Duration                                 : 1 h 34 min
  130. Bit rate                                 : 23.6 kb/s
  131. Count of elements                        : 1762
  132. Stream size                              : 16.0 MiB (0%)
  133. Language                                 : Portuguese
  134. Default                                  : No
  135. Forced                                   : No
  136. Original source medium                   : Blu-ray
  137. Menu
  138. 00:00:00.000                             : en:Chapter 01
  139. 00:04:19.717                             : en:Chapter 02
  140. 00:11:35.695                             : en:Chapter 03
  141. 00:16:47.214                             : en:Chapter 04
  142. 00:24:09.823                             : en:Chapter 05
  143. 00:30:25.532                             : en:Chapter 06
  144. 00:34:18.389                             : en:Chapter 07
  145. 00:39:15.811                             : en:Chapter 08
  146. 00:44:25.162                             : en:Chapter 09
  147. 00:52:03.662                             : en:Chapter 10
  148. 00:57:54.429                             : en:Chapter 11
  149. 01:03:33.351                             : en:Chapter 12
  150. 01:08:57.675                             : en:Chapter 13
  151. 01:15:58.011                             : en:Chapter 14
  152. 01:21:29.092                             : en:Chapter 15
  153. 01:29:39.707                             : en:Chapter 16
复制代码



4K321提示您 点击下方附件即可下载

夺命追捕 Pursuit.2022.1080p.BluRay.REMUX.AVC.DTS-HD.MA.5.1-FGT 19.58GB

Pursuit.2022.1080p.BluRay.REMUX.AVC.DTS-HD.MA.5.1-FGT.torrent ( 25.12 KB )

回复

使用道具 举报

全部回复0 显示全部楼层

声明:您在社区发表的所有信息仅代表用户个人观点,与本网站立场无关,希望各位烧友理性发言,不发表违法国家法律禁止的话题。

您需要登录后才可以回帖 登录 | 立即注册

本版积分规则

联系客服 关注微信 下载APP 返回顶部 返回列表