开启左侧

[喜剧片] 和我结婚 Marry.Me.2022.1080p.BluRay.REMUX.AVC.DTS-HD.MA.5.1-FGT 29.62GB

蓝鸟 发表于 2022-6-2 16:50:49 | 显示全部楼层 |阅读模式

和我结婚 Marry.Me.2022.1080p.BluRay.REMUX.AVC.DTS-HD.MA.5.1-FGT 29.62GB

和我结婚 Marry.Me.2022.1080p.BluRay.REMUX.AVC.DTS-HD.MA.5.1-FGT 29.62GB


译  名 和我结婚 / 非常巨星拣老公(港) / 娶我吧!(台)
片  名 Marry Me
年  代 2022
产  地 美国
类  别 喜剧 / 爱情 / 音乐
语  言 英语
上映日期 2022-02-11(美国/美国网络)
豆瓣评分 6.0/10 (1017人评价)
片  长 112分钟
导  演 凯特·凯罗 Kat Coiro
编  剧 约翰·罗杰斯 John Rogers
       塔米·赛格 Tami Sagher
       哈珀·迪尔 Harper Dill  
       博比·克罗斯比 Bobby Crosby  
演  员 詹妮弗·洛佩兹 Jennifer Lopez
       欧文·威尔逊 Owen Wilson
       胡安·路易斯·隆东纽·阿利阿斯 Maluma
       萨拉·西尔弗曼 Sarah Silverman
       约翰·布莱德利 John Bradley
       克洛伊·科尔曼 Chloe Coleman
       吉米·法伦 Jimmy Fallon
       布雷迪·诺恩 Brady Noon
       蜜雪儿·伯托 Michelle Buteau
       乌特卡什·安邦德卡尔 Utkarsh Ambudkar
       基思·埃威尔 Keith Ewell
       杰奎琳·霍努力克 Jacqueline Honulik
       卡特里娜·坎宁安 Katrina Cunningham
       斯蒂芬·沃勒 Stephen Wallem
       劳伦斯·史密斯 Lawrence Smith
       莱恩·瓦莱丽 Lynne Valley
       布莱斯·科里根 Blaise Corrigan
       洛根·克劳福德 Logan Crawford
       朱塞佩·阿迪佐内 Giuseppe Ardizzone
       赫纳多·罗德里格斯 Henardo Rodriguez
       亚历克斯·佩雷斯 Alex Perez
       瑞娜·郑 Raina Cheng
       乔纳森·M·帕里森  Jonathan M. Parisen
       马科·查卡 Marko Caka
       桃乐丝·麦卡锡 Doris McCarthy
       弗洛里安·巴尔豪斯 Florian Ballhaus

简  介

故事讲述一名流行巨星(洛佩兹饰)在麦迪逊广场花园与摇滚明星未婚夫结婚时,发现未婚夫与她的助手有染。于是她在台上随意挑选一名数学老师(威尔逊饰),与他结婚。


影片参数
  1. Video
  2. ID                                       : 1
  3. ID in the original source medium         : 4113 (0x1011)
  4. Format                                   : AVC
  5. Format/Info                              : Advanced Video Codec
  6. Format profile                           : [email protected]
  7. Format settings                          : CABAC / 4 Ref Frames
  8. Format settings, CABAC                   : Yes
  9. Format settings, Reference frames        : 4 frames
  10. Codec ID                                 : V_MPEG4/ISO/AVC
  11. Duration                                 : 1 h 52 min
  12. Bit rate mode                            : Variable
  13. Bit rate                                 : 32.2 Mb/s
  14. Maximum bit rate                         : 35.0 Mb/s
  15. Width                                    : 1 920 pixels
  16. Height                                   : 1 080 pixels
  17. Display aspect ratio                     : 16:9
  18. Frame rate mode                          : Constant
  19. Frame rate                               : 23.976 (24000/1001/189150) FPS
  20. Color space                              : YUV
  21. Chroma subsampling                       : 4:2:0
  22. Bit depth                                : 8 bits
  23. Scan type                                : Progressive
  24. Bits/(Pixel*Frame)                       : 0.647
  25. Stream size                              : 25.2 GiB (85%)
  26. Language                                 : English
  27. Default                                  : No
  28. Forced                                   : No
  29. Original source medium                   : Blu-ray
  30. Audio #1
  31. ID                                       : 2
  32. ID in the original source medium         : 4352 (0x1100)
  33. Format                                   : DTS XLL
  34. Format/Info                              : Digital Theater Systems
  35. Commercial name                          : DTS-HD Master Audio
  36. Codec ID                                 : A_DTS
  37. Duration                                 : 1 h 52 min
  38. Bit rate mode                            : Variable
  39. Bit rate                                 : 3 696 kb/s
  40. Channel(s)                               : 6 channels
  41. Channel layout                           : C L R Ls Rs LFE
  42. Sampling rate                            : 48.0 kHz
  43. Frame rate                               : 93.750 FPS (512 SPF)
  44. Bit depth                                : 24 bits
  45. Compression mode                         : Lossless
  46. Stream size                              : 2.89 GiB (10%)
  47. Title                                    : DTS-HD MA 5.1
  48. Language                                 : English
  49. Default                                  : Yes
  50. Forced                                   : No
  51. Original source medium                   : Blu-ray
  52. Audio #2
  53. ID                                       : 3
  54. ID in the original source medium         : 4353 (0x1101)
  55. Format                                   : DTS
  56. Format/Info                              : Digital Theater Systems
  57. Codec ID                                 : A_DTS
  58. Duration                                 : 1 h 52 min
  59. Bit rate mode                            : Constant
  60. Bit rate                                 : 768 kb/s
  61. Channel(s)                               : 6 channels
  62. Channel layout                           : C L R Ls Rs LFE
  63. Sampling rate                            : 48.0 kHz
  64. Frame rate                               : 93.750 FPS (512 SPF)
  65. Bit depth                                : 24 bits
  66. Compression mode                         : Lossy
  67. Stream size                              : 616 MiB (2%)
  68. Title                                    : DTS 5.1
  69. Language                                 : Spanish
  70. Default                                  : No
  71. Forced                                   : No
  72. Original source medium                   : Blu-ray
  73. Audio #3
  74. ID                                       : 4
  75. ID in the original source medium         : 4354 (0x1102)
  76. Format                                   : DTS
  77. Format/Info                              : Digital Theater Systems
  78. Codec ID                                 : A_DTS
  79. Duration                                 : 1 h 52 min
  80. Bit rate mode                            : Constant
  81. Bit rate                                 : 768 kb/s
  82. Channel(s)                               : 6 channels
  83. Channel layout                           : C L R Ls Rs LFE
  84. Sampling rate                            : 48.0 kHz
  85. Frame rate                               : 93.750 FPS (512 SPF)
  86. Bit depth                                : 24 bits
  87. Compression mode                         : Lossy
  88. Stream size                              : 616 MiB (2%)
  89. Title                                    : DTS 5.1
  90. Language                                 : French
  91. Default                                  : No
  92. Forced                                   : No
  93. Original source medium                   : Blu-ray
  94. Audio #4
  95. ID                                       : 5
  96. ID in the original source medium         : 4355 (0x1103)
  97. Format                                   : AC-3
  98. Format/Info                              : Audio Coding 3
  99. Commercial name                          : Dolby Digital
  100. Codec ID                                 : A_AC3
  101. Duration                                 : 1 h 52 min
  102. Bit rate mode                            : Constant
  103. Bit rate                                 : 192 kb/s
  104. Channel(s)                               : 2 channels
  105. Channel layout                           : L R
  106. Sampling rate                            : 48.0 kHz
  107. Frame rate                               : 31.250 FPS (1536 SPF)
  108. Compression mode                         : Lossy
  109. Stream size                              : 154 MiB (0%)
  110. Title                                    : DD 2.0
  111. Language                                 : English
  112. Service kind                             : Complete Main
  113. Default                                  : No
  114. Forced                                   : No
  115. Original source medium                   : Blu-ray
  116. Audio #5
  117. ID                                       : 6
  118. ID in the original source medium         : 4356 (0x1104)
  119. Format                                   : AC-3
  120. Format/Info                              : Audio Coding 3
  121. Commercial name                          : Dolby Digital
  122. Codec ID                                 : A_AC3
  123. Duration                                 : 1 h 52 min
  124. Bit rate mode                            : Constant
  125. Bit rate                                 : 192 kb/s
  126. Channel(s)                               : 2 channels
  127. Channel layout                           : L R
  128. Sampling rate                            : 48.0 kHz
  129. Frame rate                               : 31.250 FPS (1536 SPF)
  130. Compression mode                         : Lossy
  131. Stream size                              : 154 MiB (0%)
  132. Title                                    : DD 2.0
  133. Language                                 : English
  134. Service kind                             : Complete Main
  135. Default                                  : No
  136. Forced                                   : No
  137. Original source medium                   : Blu-ray
  138. Text #1
  139. ID                                       : 7
  140. Format                                   : UTF-8
  141. Codec ID                                 : S_TEXT/UTF8
  142. Codec ID/Info                            : UTF-8 Plain Text
  143. Duration                                 : 1 h 51 min
  144. Bit rate                                 : 82 b/s
  145. Count of elements                        : 2266
  146. Stream size                              : 67.7 KiB (0%)
  147. Language                                 : English
  148. Default                                  : Yes
  149. Forced                                   : No
  150. Text #2
  151. ID                                       : 8
  152. Format                                   : UTF-8
  153. Codec ID                                 : S_TEXT/UTF8
  154. Codec ID/Info                            : UTF-8 Plain Text
  155. Duration                                 : 1 h 51 min
  156. Bit rate                                 : 87 b/s
  157. Count of elements                        : 2403
  158. Stream size                              : 71.1 KiB (0%)
  159. Title                                    : SDH
  160. Language                                 : English
  161. Default                                  : No
  162. Forced                                   : No
  163. Text #3
  164. ID                                       : 9
  165. ID in the original source medium         : 4608 (0x1200)
  166. Format                                   : PGS
  167. Muxing mode                              : zlib
  168. Codec ID                                 : S_HDMV/PGS
  169. Codec ID/Info                            : Picture based subtitle format used on BDs/HD-DVDs
  170. Duration                                 : 1 h 51 min
  171. Bit rate                                 : 60.2 kb/s
  172. Count of elements                        : 4861
  173. Stream size                              : 48.0 MiB (0%)
  174. Language                                 : English
  175. Default                                  : No
  176. Forced                                   : No
  177. Original source medium                   : Blu-ray
  178. Text #4
  179. ID                                       : 10
  180. ID in the original source medium         : 4609 (0x1201)
  181. Format                                   : PGS
  182. Muxing mode                              : zlib
  183. Codec ID                                 : S_HDMV/PGS
  184. Codec ID/Info                            : Picture based subtitle format used on BDs/HD-DVDs
  185. Duration                                 : 1 h 51 min
  186. Bit rate                                 : 44.7 kb/s
  187. Count of elements                        : 4001
  188. Stream size                              : 35.7 MiB (0%)
  189. Language                                 : Spanish
  190. Default                                  : No
  191. Forced                                   : No
  192. Original source medium                   : Blu-ray
  193. Text #5
  194. ID                                       : 11
  195. ID in the original source medium         : 4610 (0x1202)
  196. Format                                   : PGS
  197. Muxing mode                              : zlib
  198. Codec ID                                 : S_HDMV/PGS
  199. Codec ID/Info                            : Picture based subtitle format used on BDs/HD-DVDs
  200. Duration                                 : 1 h 51 min
  201. Bit rate                                 : 48.5 kb/s
  202. Count of elements                        : 4353
  203. Stream size                              : 38.7 MiB (0%)
  204. Language                                 : French
  205. Default                                  : No
  206. Forced                                   : No
  207. Original source medium                   : Blu-ray
  208. Text #6
  209. ID                                       : 12
  210. ID in the original source medium         : 4611 (0x1203)
  211. Format                                   : PGS
  212. Muxing mode                              : zlib
  213. Codec ID                                 : S_HDMV/PGS
  214. Codec ID/Info                            : Picture based subtitle format used on BDs/HD-DVDs
  215. Duration                                 : 1 h 50 min
  216. Bit rate                                 : 5 218 b/s
  217. Count of elements                        : 437
  218. Stream size                              : 4.14 MiB (0%)
  219. Title                                    : FORCED
  220. Language                                 : Spanish
  221. Default                                  : No
  222. Forced                                   : No
  223. Original source medium                   : Blu-ray
  224. Text #7
  225. ID                                       : 13
  226. ID in the original source medium         : 4612 (0x1204)
  227. Format                                   : PGS
  228. Muxing mode                              : zlib
  229. Codec ID                                 : S_HDMV/PGS
  230. Codec ID/Info                            : Picture based subtitle format used on BDs/HD-DVDs
  231. Duration                                 : 1 h 51 min
  232. Bit rate                                 : 5 897 b/s
  233. Count of elements                        : 487
  234. Stream size                              : 4.70 MiB (0%)
  235. Title                                    : FORCED
  236. Language                                 : French
  237. Default                                  : No
  238. Forced                                   : No
  239. Original source medium                   : Blu-ray
  240. Menu
  241. 00:00:00.000                             : en:Chapter 01
  242. 00:03:10.481                             : en:Chapter 02
  243. 00:10:40.264                             : en:Chapter 03
  244. 00:15:43.275                             : en:Chapter 04
  245. 00:21:57.524                             : en:Chapter 05
  246. 00:25:52.676                             : en:Chapter 06
  247. 00:33:25.670                             : en:Chapter 07
  248. 00:40:23.754                             : en:Chapter 08
  249. 00:46:05.471                             : en:Chapter 09
  250. 00:50:29.943                             : en:Chapter 10
  251. 00:58:57.450                             : en:Chapter 11
  252. 01:04:45.965                             : en:Chapter 12
  253. 01:11:17.606                             : en:Chapter 13
  254. 01:15:31.902                             : en:Chapter 14
  255. 01:18:53.937                             : en:Chapter 15
  256. 01:26:40.695                             : en:Chapter 16
  257. 01:32:44.767                             : en:Chapter 17
  258. 01:36:59.104                             : en:Chapter 18
  259. 01:40:10.421                             : en:Chapter 19
  260. 01:45:06.383                             : en:Chapter 20
复制代码

和我结婚 Marry.Me.2022.1080p.BluRay.REMUX.AVC.DTS-HD.MA.5.1-FGT 29.62GB

和我结婚 Marry.Me.2022.1080p.BluRay.REMUX.AVC.DTS-HD.MA.5.1-FGT 29.62GB



4K321提示您 点击下方附件即可下载

和我结婚 Marry.Me.2022.1080p.BluRay.REMUX.AVC.DTS-HD.MA.5.1-FGT 29.62GB

Marry.Me.2022.1080p.BluRay.REMUX.AVC.DTS-HD.MA.5.1-FGT.torrent ( 37.66 KB )

回复

使用道具 举报

全部回复0 显示全部楼层

声明:您在社区发表的所有信息仅代表用户个人观点,与本网站立场无关,希望各位烧友理性发言,不发表违法国家法律禁止的话题。

您需要登录后才可以回帖 登录 | 立即注册

本版积分规则

联系客服 关注微信 下载APP 返回顶部 返回列表