开启左侧

[剧情片] 她自己 Herself.2020.1080p.BluRay.REMUX.AVC.DTS-HD.MA.5.1-FGT 29.22GB

蓝鸟 发表于 2022-6-2 16:48:35 | 显示全部楼层 |阅读模式

她自己 Herself.2020.1080p.BluRay.REMUX.AVC.DTS-HD.MA.5.1-FGT 29.22GB

她自己 Herself.2020.1080p.BluRay.REMUX.AVC.DTS-HD.MA.5.1-FGT 29.22GB


译  名 她自己
片  名 Herself
年  代 2020
产  地 爱尔兰 / 英国
类  别 剧情
语  言 英语
上映日期 2020-01(圣丹斯电影节) / 2021-01-08(美国网络)
片  长 97分钟
导  演 菲利达·劳埃德 Phyllida Lloyd
编  剧 Malcolm Campbell Malcolm Campbell
演  员 康勒斯·希尔 Conleth Hill
       哈丽特·瓦尔特 Harriet Walter
       凯茜·贝尔顿 Cathy Belton
       肖恩·达根 Sean Duggan
       克莱尔·邓恩 Clare Dunne
       露比·罗斯·奥哈拉 Ruby Rose O''Hara
       茉莉·麦克凯恩 Molly McCann
       弗兰克·普雷德加斯特 Frank Prendergast
       利兹·菲茨吉本 Liz Fitzgibbon
       Peter Gaynor Peter Gaynor
       Tina Kellegher Tina Kellegher
       罗肯·克兰尼奇 Lorcan Cranitch
       伊恩·劳埃德·安德森 Ian Lloyd Anderson
       菲利达·劳埃德 Phyllida Lloyd
       娜塔莉·霍尔特 Natalie Ann Holt
       索莱塔·博伊尔 Consolata Boyle

简  介

Single-mother Sandra (Clare Dunne) escapes her abusive partner with her two young children, only to find herself trapped in temporary accommodation. After months of struggling, she draws inspiration from one of her daughter’s bedtime stories and hits upon the idea of self-building an affordable home. She finds an architect who provides her with plans and is offered land by Pegg...


获奖情况 (共2项)

第68届圣塞巴斯蒂安国际电影节 (2020)
  观众选择奖(提名)
   └──菲利达·劳埃德
  第23届英国独立电影奖 (2020)
  最佳女主角(提名)
   └──克莱尔·邓恩


影片参数
  1. Video
  2. ID                                       : 1
  3. ID in the original source medium         : 4113 (0x1011)
  4. Format                                   : AVC
  5. Format/Info                              : Advanced Video Codec
  6. Format profile                           : [email protected]
  7. Format settings                          : CABAC / 4 Ref Frames
  8. Format settings, CABAC                   : Yes
  9. Format settings, Reference frames        : 4 frames
  10. Codec ID                                 : V_MPEG4/ISO/AVC
  11. Duration                                 : 1 h 37 min
  12. Bit rate mode                            : Variable
  13. Bit rate                                 : 35.6 Mb/s
  14. Maximum bit rate                         : 38.0 Mb/s
  15. Width                                    : 1 920 pixels
  16. Height                                   : 1 080 pixels
  17. Display aspect ratio                     : 16:9
  18. Frame rate mode                          : Constant
  19. Frame rate                               : 24.000 FPS
  20. Color space                              : YUV
  21. Chroma subsampling                       : 4:2:0
  22. Bit depth                                : 8 bits
  23. Scan type                                : Progressive
  24. Bits/(Pixel*Frame)                       : 0.714
  25. Stream size                              : 24.2 GiB (83%)
  26. Language                                 : English
  27. Default                                  : No
  28. Forced                                   : No
  29. Original source medium                   : Blu-ray
  30. Audio #1
  31. ID                                       : 2
  32. ID in the original source medium         : 4352 (0x1100)
  33. Format                                   : DTS XLL
  34. Format/Info                              : Digital Theater Systems
  35. Commercial name                          : DTS-HD Master Audio
  36. Codec ID                                 : A_DTS
  37. Duration                                 : 1 h 37 min
  38. Bit rate mode                            : Variable
  39. Bit rate                                 : 2 702 kb/s
  40. Channel(s)                               : 6 channels
  41. Channel layout                           : C L R Ls Rs LFE
  42. Sampling rate                            : 48.0 kHz
  43. Frame rate                               : 93.750 FPS (512 SPF)
  44. Bit depth                                : 24 bits
  45. Compression mode                         : Lossless
  46. Stream size                              : 1.84 GiB (6%)
  47. Title                                    : DTS-HD MA 5.1
  48. Language                                 : English
  49. Default                                  : Yes
  50. Forced                                   : No
  51. Original source medium                   : Blu-ray
  52. Audio #2
  53. ID                                       : 3
  54. ID in the original source medium         : 4353 (0x1101)
  55. Format                                   : PCM
  56. Format settings                          : Little / Signed
  57. Codec ID                                 : A_PCM/INT/LIT
  58. Duration                                 : 1 h 37 min
  59. Bit rate mode                            : Constant
  60. Bit rate                                 : 2 304 kb/s
  61. Channel(s)                               : 2 channels
  62. Sampling rate                            : 48.0 kHz
  63. Frame rate                               : 30.000 FPS (1600 SPF)
  64. Bit depth                                : 24 bits
  65. Stream size                              : 1.57 GiB (5%)
  66. Title                                    : LPCM 2.0
  67. Language                                 : English
  68. Default                                  : No
  69. Forced                                   : No
  70. Original source medium                   : Blu-ray
  71. Audio #3
  72. ID                                       : 4
  73. ID in the original source medium         : 4354 (0x1102)
  74. Format                                   : PCM
  75. Format settings                          : Little / Signed
  76. Codec ID                                 : A_PCM/INT/LIT
  77. Duration                                 : 1 h 37 min
  78. Bit rate mode                            : Constant
  79. Bit rate                                 : 2 304 kb/s
  80. Channel(s)                               : 2 channels
  81. Sampling rate                            : 48.0 kHz
  82. Frame rate                               : 30.000 FPS (1600 SPF)
  83. Bit depth                                : 24 bits
  84. Stream size                              : 1.57 GiB (5%)
  85. Title                                    : LPCM 2.0
  86. Language                                 : English
  87. Default                                  : No
  88. Forced                                   : No
  89. Original source medium                   : Blu-ray
  90. Text #1
  91. ID                                       : 5
  92. Format                                   : UTF-8
  93. Codec ID                                 : S_TEXT/UTF8
  94. Codec ID/Info                            : UTF-8 Plain Text
  95. Duration                                 : 1 h 35 min
  96. Bit rate                                 : 66 b/s
  97. Count of elements                        : 1562
  98. Stream size                              : 46.6 KiB (0%)
  99. Language                                 : English
  100. Default                                  : Yes
  101. Forced                                   : No
  102. Text #2
  103. ID                                       : 6
  104. Format                                   : UTF-8
  105. Codec ID                                 : S_TEXT/UTF8
  106. Codec ID/Info                            : UTF-8 Plain Text
  107. Duration                                 : 1 h 36 min
  108. Bit rate                                 : 74 b/s
  109. Count of elements                        : 1715
  110. Stream size                              : 52.5 KiB (0%)
  111. Title                                    : SDH
  112. Language                                 : English
  113. Default                                  : No
  114. Forced                                   : No
  115. Text #3
  116. ID                                       : 7
  117. ID in the original source medium         : 4608 (0x1200)
  118. Format                                   : PGS
  119. Muxing mode                              : zlib
  120. Codec ID                                 : S_HDMV/PGS
  121. Codec ID/Info                            : Picture based subtitle format used on BDs/HD-DVDs
  122. Duration                                 : 1 h 36 min
  123. Bit rate                                 : 45.0 kb/s
  124. Count of elements                        : 3452
  125. Stream size                              : 31.0 MiB (0%)
  126. Language                                 : English
  127. Default                                  : No
  128. Forced                                   : No
  129. Original source medium                   : Blu-ray
  130. Menu
  131. 00:00:00.000                             : en:Chapter 01
  132. 00:10:52.333                             : en:Chapter 02
  133. 00:23:51.708                             : en:Chapter 03
  134. 00:35:48.875                             : en:Chapter 04
  135. 00:48:46.875                             : en:Chapter 05
  136. 00:59:57.625                             : en:Chapter 06
  137. 01:13:31.125                             : en:Chapter 07
  138. 01:28:41.083                             : en:Chapter 08
复制代码

她自己 Herself.2020.1080p.BluRay.REMUX.AVC.DTS-HD.MA.5.1-FGT 29.22GB

她自己 Herself.2020.1080p.BluRay.REMUX.AVC.DTS-HD.MA.5.1-FGT 29.22GB

她自己 Herself.2020.1080p.BluRay.REMUX.AVC.DTS-HD.MA.5.1-FGT 29.22GB

她自己 Herself.2020.1080p.BluRay.REMUX.AVC.DTS-HD.MA.5.1-FGT 29.22GB



4K321提示您 点击下方附件即可下载

她自己 Herself.2020.1080p.BluRay.REMUX.AVC.DTS-HD.MA.5.1-FGT 29.22GB

Herself.2020.1080p.BluRay.REMUX.AVC.DTS-HD.MA.5.1-FGT.torrent ( 37.15 KB )

回复

使用道具 举报

全部回复0 显示全部楼层

声明:您在社区发表的所有信息仅代表用户个人观点,与本网站立场无关,希望各位烧友理性发言,不发表违法国家法律禁止的话题。

您需要登录后才可以回帖 登录 | 立即注册

本版积分规则

联系客服 关注微信 下载APP 返回顶部 返回列表