开启左侧

[悬疑片] 门后的男孩 The.Boy.Behind.the.Door.2020.1080p.BluRay.REMUX.AVC.DTS-HD.MA.5.1-FGT 17.11GB

蓝鸟 发表于 2022-6-2 16:48:06 | 显示全部楼层 |阅读模式

门后的男孩 The.Boy.Behind.the.Door.2020.1080p.BluRay.REMUX.AVC.DTS-HD.MA.5.1-FGT 17.11GB

门后的男孩 The.Boy.Behind.the.Door.2020.1080p.BluRay.REMUX.AVC.DTS-HD.MA.5.1-FGT 17.11GB


译  名 门后的男孩
片  名 The Boy Behind the Door
年  代 2020
产  地 美国
类  别 悬疑 / 惊悚 / 恐怖
语  言 英语
上映日期 2020-09-27(奇幻影展) / 2021-07-29(美国)
豆瓣评分 5.1/10 (108人评价)
片  长 89分钟
导  演 大卫·夏彭尼尔 David Charbonier
       贾斯汀·鲍威尔 Justin Powell
编  剧 大卫·夏彭尼尔 David Charbonier
       贾斯汀·鲍威尔 Justin Powell
演  员 朗尼·查维斯 Lonnie Chavis
       麦卡·霍普特曼 Micah Hauptman
       斯科特·迈克尔·福斯特 Scott Michael Foster
       埃兹拉·杜威 Ezra Dewey

简  介

A night of unimaginable terror awaits twelve-year-old, Bobby, and his best friend, Kevin, when they are abducted on their way home from school.                                       
                                    Managing to escape his confines, Bobby navigates the dark halls, praying his presence goes unnoticed as he avoids his captor at every turn. Even worse is the arrival of another deranged stranger, whose mysterious arrangement with the ki...


影片参数
  1. Video
  2. ID                                       : 1
  3. ID in the original source medium         : 4113 (0x1011)
  4. Format                                   : AVC
  5. Format/Info                              : Advanced Video Codec
  6. Format profile                           : [email protected]
  7. Format settings                          : CABAC / 4 Ref Frames
  8. Format settings, CABAC                   : Yes
  9. Format settings, Reference frames        : 4 frames
  10. Codec ID                                 : V_MPEG4/ISO/AVC
  11. Duration                                 : 1 h 28 min
  12. Bit rate mode                            : Variable
  13. Bit rate                                 : 25.9 Mb/s
  14. Maximum bit rate                         : 38.0 Mb/s
  15. Width                                    : 1 920 pixels
  16. Height                                   : 1 080 pixels
  17. Display aspect ratio                     : 16:9
  18. Frame rate mode                          : Constant
  19. Frame rate                               : 23.976 (24000/1001/189150) FPS
  20. Color space                              : YUV
  21. Chroma subsampling                       : 4:2:0
  22. Bit depth                                : 8 bits
  23. Scan type                                : Progressive
  24. Bits/(Pixel*Frame)                       : 0.521
  25. Stream size                              : 16.0 GiB (93%)
  26. Language                                 : English
  27. Default                                  : No
  28. Forced                                   : No
  29. Original source medium                   : Blu-ray
  30. Audio
  31. ID                                       : 2
  32. ID in the original source medium         : 4352 (0x1100)
  33. Format                                   : DTS XLL
  34. Format/Info                              : Digital Theater Systems
  35. Commercial name                          : DTS-HD Master Audio
  36. Codec ID                                 : A_DTS
  37. Duration                                 : 1 h 28 min
  38. Bit rate mode                            : Variable
  39. Bit rate                                 : 1 801 kb/s
  40. Channel(s)                               : 6 channels
  41. Channel layout                           : C L R Ls Rs LFE
  42. Sampling rate                            : 48.0 kHz
  43. Frame rate                               : 93.750 FPS (512 SPF)
  44. Bit depth                                : 16 bits
  45. Compression mode                         : Lossless
  46. Stream size                              : 1.11 GiB (6%)
  47. Title                                    : DTS-HD MA 5.1
  48. Language                                 : English
  49. Default                                  : Yes
  50. Forced                                   : No
  51. Original source medium                   : Blu-ray
  52. Text #1
  53. ID                                       : 3
  54. Format                                   : UTF-8
  55. Codec ID                                 : S_TEXT/UTF8
  56. Codec ID/Info                            : UTF-8 Plain Text
  57. Duration                                 : 1 h 19 min
  58. Bit rate                                 : 17 b/s
  59. Count of elements                        : 488
  60. Stream size                              : 10.2 KiB (0%)
  61. Language                                 : English
  62. Default                                  : Yes
  63. Forced                                   : No
  64. Text #2
  65. ID                                       : 4
  66. Format                                   : UTF-8
  67. Codec ID                                 : S_TEXT/UTF8
  68. Codec ID/Info                            : UTF-8 Plain Text
  69. Duration                                 : 1 h 21 min
  70. Bit rate                                 : 28 b/s
  71. Count of elements                        : 838
  72. Stream size                              : 17.3 KiB (0%)
  73. Title                                    : SDH
  74. Language                                 : English
  75. Default                                  : No
  76. Forced                                   : No
  77. Text #3
  78. ID                                       : 5
  79. ID in the original source medium         : 4608 (0x1200)
  80. Format                                   : PGS
  81. Muxing mode                              : zlib
  82. Codec ID                                 : S_HDMV/PGS
  83. Codec ID/Info                            : Picture based subtitle format used on BDs/HD-DVDs
  84. Duration                                 : 1 h 27 min
  85. Bit rate                                 : 21.6 kb/s
  86. Count of elements                        : 2560
  87. Stream size                              : 13.6 MiB (0%)
  88. Language                                 : English
  89. Default                                  : No
  90. Forced                                   : No
  91. Original source medium                   : Blu-ray
  92. Text #4
  93. ID                                       : 6
  94. ID in the original source medium         : 4609 (0x1201)
  95. Format                                   : PGS
  96. Muxing mode                              : zlib
  97. Codec ID                                 : S_HDMV/PGS
  98. Codec ID/Info                            : Picture based subtitle format used on BDs/HD-DVDs
  99. Duration                                 : 1 h 21 min
  100. Bit rate                                 : 12.0 kb/s
  101. Count of elements                        : 884
  102. Stream size                              : 6.98 MiB (0%)
  103. Language                                 : Spanish
  104. Default                                  : No
  105. Forced                                   : No
  106. Original source medium                   : Blu-ray
  107. Menu
  108. 00:00:00.000                             : en:Chapter 01
  109. 00:09:43.499                             : en:Chapter 02
  110. 00:20:48.872                             : en:Chapter 03
  111. 00:29:49.913                             : en:Chapter 04
  112. 00:39:11.515                             : en:Chapter 05
  113. 00:50:34.448                             : en:Chapter 06
  114. 00:59:48.293                             : en:Chapter 07
  115. 01:10:01.238                             : en:Chapter 08
  116. 01:21:48.236                             : en:Chapter 09
复制代码

门后的男孩 The.Boy.Behind.the.Door.2020.1080p.BluRay.REMUX.AVC.DTS-HD.MA.5.1-FGT 17.11GB

门后的男孩 The.Boy.Behind.the.Door.2020.1080p.BluRay.REMUX.AVC.DTS-HD.MA.5.1-FGT 17.11GB

门后的男孩 The.Boy.Behind.the.Door.2020.1080p.BluRay.REMUX.AVC.DTS-HD.MA.5.1-FGT 17.11GB

门后的男孩 The.Boy.Behind.the.Door.2020.1080p.BluRay.REMUX.AVC.DTS-HD.MA.5.1-FGT 17.11GB



4K321提示您 点击下方附件即可下载

门后的男孩 The.Boy.Behind.the.Door.2020.1080p.BluRay.REMUX.AVC.DTS-HD.MA.5.1-FGT 17.11GB

The.Boy.Behind.the.Door.2020.1080p.BluRay.REMUX.AVC.DTS-HD.MA.5.1-FGT.torrent ( 22.04 KB )

回复

使用道具 举报

全部回复0 显示全部楼层

声明:您在社区发表的所有信息仅代表用户个人观点,与本网站立场无关,希望各位烧友理性发言,不发表违法国家法律禁止的话题。

您需要登录后才可以回帖 登录 | 立即注册

本版积分规则

联系客服 关注微信 下载APP 返回顶部 返回列表