开启左侧

恶战[国语配音/中文字幕].Once.Upon.a.Time.in.Shanghai.2014.2160p.WEB-DL.H265.AAC-CTRLWEB—4k电影

小山雀 发表于 2022-6-2 16:40:54 | 显示全部楼层 |阅读模式
恶战 豆瓣评分: 6.4分
上映时间:2014年        影片时长:95分钟
类型:动作 剧情 
地区:港台 
导演:黄精甫
主演:伍允龙 / 安志杰 / 洪金宝 / 胡然 / 毛俊杰
画质标准:4K  封装音轨:ACC 2.0 
  • 电影下载
  • 影片简介
  • 影片参数
  • 下载说明
  • 网盘/云盘/BT 下载 Cloud storage / Cloud disk / BT download
  • 《恶战》剧情简介 Film Introduction
      上海滩十里洋场,是无数人追梦的乐园……天生神力的青年马永贞(伍允龙 饰)从家乡来到上海谋生,在当时占有上海一半势力范围的老帮派斧头帮治下谋得一份苦工,岂料因同伴窃取斧头帮的鸦片,在后者发难之际与同住贫民区的老铁(洪金宝 饰)将工友救下,为了追踪那批鸦片的下落,马永贞与上海另一半势力范围的主人——新近崛起的龙七(安志杰 饰)不打不相识,并因为受到斧头帮排挤,不得不与同伴们投奔龙七。因秉持母亲的教诲,马永贞无意加入龙七的帮会,但龙七不以为意,反与之结为知交。不久,那批鸦片的真正主人——日本人为了介入上海,利用斧头帮和龙七的矛盾欲置龙七与老铁等人于死地,马永贞忍无可忍,誓要复仇……

    获奖情况 (共1项)
      第34届香港电影金像奖 (2015)
      最佳动作设计(提名)


    网盘/云盘/BT 下载 Cloud storage / Cloud disk / BT download
  • 《恶战》影片INFO Video INFO
    General
    Complete name : Once.Upon.a.Time.in.Shanghai.2014.2160p.WEB-DL.H265.AAC-CTRLWEB.mp4
    Format : MPEG-4
    Format profile : Base Media
    Codec ID : isom (isom/iso2/mp41)
    File size : 10.9 GiB
    Duration : 1 h 31 min
    Overall bit rate : 17.1 Mb/s
    Recorded date : 2022-05-14T17:14:28.1180575+08:00
    Writing application : Lavf59.16.100
    Video
    ID : 1
    Format : HEVC
    Format/Info : High Efficiency Video Coding
    Format profile : Main@L5@High
    Codec ID : hev1
    Codec ID/Info : High Efficiency Video Coding
    Duration : 1 h 31 min
    Bit rate : 17.0 Mb/s
    Width : 3 840 pixels
    Height : 1 624 pixels
    Display aspect ratio : 2.35:1
    Frame rate mode : Constant
    Frame rate : 25.000 FPS
    Color space : YUV
    Chroma subsampling : 4:2:0
    Bit depth : 8 bits
    Bits/(Pixel*Frame) : 0.109
    Stream size : 10.8 GiB (99%)
    Codec configuration box : hvcC
    Audio
    ID : 2
    Format : AAC LC
    Format/Info : Advanced Audio Codec Low Complexity
    Codec ID : mp4a-40-2
    Duration : 1 h 31 min
    Bit rate mode : Constant
    Bit rate : 124 kb/s
    Channel(s) : 2 channels
    Channel layout : L R
    Sampling rate : 44.1 kHz
    Frame rate : 43.066 FPS (1024 SPF)
    Compression mode : Lossy
    Stream size : 81.0 MiB (1%)
    Default : Yes
    Alternate group : 1



    网盘/云盘/BT 下载 Cloud storage / Cloud disk / BT download
  • 下载电影三步骤
    1、在《4K电影列表》找到并打开电影详情页,点击BT种子文件或复制磁力链,将BT种子下载到电脑中。
    2、电脑安装《BT下载软件》,免费的推荐使用《UTorrent》下载,收费的推荐使用《115网盘》下载(速度又快又稳).
    3、用BT下载软件,打开BT种子、或将磁力链复制粘贴到BT软件中即可下载。


    本站4K电影版块资源99%是真4K,都是从UHD蓝光碟片中提取而来!本站未发布的4K资源,全网都没有(除非假4K),所以发帖求资源也没用。

    下载速度慢怎么办
    1、正常情况使用《UTorrent》跟着网站发布资源节奏下载速度很快,可以达到宽带最大速度(电信)
    2、推荐使用《115网盘》下载速度又快又稳定,请勿使用迅雷下载;
    3、下载慢是有多方面原因,即依赖种子的热度、也要求是电信宽带(非移动/联通),同时选择对的下载软件和软件设置方法。
    4、使用BT协议下载没有速度,请更新《Trackers服务器》能够增加在线用户(越多越好),该方法使用《UTorrent》下载效果显著。
    更多下载问题参考: 4K电影下载新手学院>>

    多个种子/电影版本区别
    蓝光原盘BDMV
    俗称4K蓝光原盘,也就是从4K UHD蓝光碟中提取出来的源文件,由多个m2ts文件组成,与正版盘完全一致,且包含了光盘所有内容 (影片花絮、字幕、导航菜单、多语言多音轨、HDR 信息)等等,文件体积大,一部电影约有60GB+。此版本资源一般以「BDMV 文件夹」或「BDISO」 (iso) 格式发布;该版本可以用刻录机成带导航的光盘效果。

    DIY蓝光原盘BDMV
    经资源制作组基于蓝光原盘BDMV版本进行第二次DIY的版本,将片头AE特效、画面HDR调色、封装国语音轨、封装中文简体/繁体/英文等多语言字幕,更精彩的是是特效字幕(将电影画面中某些细节翻译成中文字幕)。

    蓝光BD-REMUX
    俗称REMUX,可以视为「音画质无损的精简版」"4K原盘",它其实就是将原盘里多余的一些音轨、花絮、菜单、字幕等东西移除或精简,仅保留主要的视频、主要音轨和部分语言字幕,然后再封装成「单个文件」的 .mkv 格式而来,其音质画质与BDMV蓝光原盘一致,但文件体积上能大幅缩减且成单个文件,在电脑上播放/管理/电视播放/播放器播放和分享起来也更方便。适合追求原盘音画质、不重视花絮周边内容、又希望稍微节省点硬盘空间的朋友。

    WEB-DL/WEBRip/流媒体版本
    WEB-DL 或 WEBRip 格式的影片主要来自 、Amazon Prime Video、Netflix、Hulu、YouTube 等「在线网络高清片源」。尽管这些服务提供了4K分辨率 (部分含 HDR) 的片源,但它们为了在线观看的流畅性,都会将视频画质进行较大幅度「有损压缩」。 WEB-DL 是 Web Download 的意思,指通过技术手段「直接下载」回来的在线视频 WEBRip 很多时候则是通过"屏幕转录"等方式二次录制,会造成多一次的画质损失。



    网盘/云盘/BT 下载 Cloud storage / Cloud disk / BT download
恶战[国语配音/中文字幕].Once.Upon.a.Time.in.Shanghai.2014.2160p.WEB-DL.H265.AAC-CTRLWEB—4k电影

恶战[国语配音/中文字幕].Once.Upon.a.Time.in.Shanghai.2014.2160p.WEB-DL.H265.AAC-CTRLWEB 10.89GB

恶战[国语配音 中文字幕].Once.Upon.a.Time.in.Shanghai.2014.2160p.WEB-DL.H265.AAC-.torrent ( 28.2 KB )



回复

使用道具 举报

全部回复0 显示全部楼层

声明:您在社区发表的所有信息仅代表用户个人观点,与本网站立场无关,希望各位烧友理性发言,不发表违法国家法律禁止的话题。

您需要登录后才可以回帖 登录 | 立即注册

本版积分规则

联系客服 关注微信 下载APP 返回顶部 返回列表