开启左侧

阿罗哈[中英字幕].Aloha.2015.WEB-DL.2160p.x265.10bit-MiniHD 4k电影

小山雀 发表于 2022-6-2 16:38:28 | 显示全部楼层 |阅读模式
阿罗哈 豆瓣评分: 5.8分
上映时间:2015年        影片时长:105分钟
类型:喜剧 剧情 爱情 
地区:美国 
导演:卡梅伦·克罗
主演:布莱德利·库珀 / 艾玛·斯通 / 瑞秋·麦克亚当斯 / 比尔·默瑞 / 约翰·卡拉辛斯基
画质标准:4K  封装音轨:DTS-HD.MA 5.1 
  • 电影下载
  • 影片简介
  • 影片参数
  • 下载说明
  • 网盘/云盘/BT 下载 Cloud storage / Cloud disk / BT download
  • 《阿罗哈》剧情简介 Film Introduction
      布莱恩(布莱德利·库珀 Bradley Cooper 饰)是一名军火承包商,年纪轻轻的他便在行业内闯出了一片属于自己的天地,攀登上了事业的最高峰。某日,他被上司派往夏威夷火奴鲁鲁军事基地,那里正在进行一项间谍卫星的开发和研制,需要布莱恩的监督,布莱恩兴致勃勃的踏上了旅途。
    让布莱恩没有想到的是,在目的地,等待着他要和他一同共事,是一位名叫艾莉森(艾玛·斯通 Emma Stone 饰)的女飞行员,艾莉森冷若冰霜而又不苟言笑,着实是一个严肃而又无趣的女人,这令布莱恩感到十分郁闷,与此同时,布莱恩对前女友崔西(瑞秋·麦克亚当斯 Rachel McAdams 饰)依然抱有着不切实际的幻想,他联系到了崔西,企图和她破镜重圆。

    获奖情况 (共3项)
      第17届美国青少年选择奖 (2015)
      最佳喜剧片(提名)
      最佳喜剧片男演员(提名)
       └──布莱德利·库珀
      最佳喜剧片女演员(提名)
       └──艾玛·斯通


    网盘/云盘/BT 下载 Cloud storage / Cloud disk / BT download
  • 《阿罗哈》影片INFO Video INFO
    General
    Format : Matroska
    Format version : Version 4
    File size : 20.5 GiB
    Duration : 1 h 44 min
    Overall bit rate mode : Variable
    Overall bit rate : 28.1 Mb/s
    Encoded date : UTC 2015-12-17 03:46:04
    Writing application : mkvmerge v7.5.0 (\'Glass Culture\') 64bit built on Jan 4 2015 16:48:44
    Writing library : libebml v1.3.1 + libmatroska v1.4.2
    Video
    ID : 1
    Format : HEVC
    Format/Info : High Efficiency Video Coding
    Codec ID : V_MPEGH/ISO/HEVC
    Duration : 1 h 44 min
    Bit rate : 25.8 Mb/s
    Width : 3 832 pixels
    Height : 2 072 pixels
    Display aspect ratio : 1.85:1
    Frame rate mode : Constant
    Frame rate : 23.976 (24000/1001/53875) FPS
    Bits/(Pixel*Frame) : 0.136
    Stream size : 18.9 GiB (92%)
    Default : Yes
    Forced : No
    Audio
    ID : 2
    Format : DTS XLL
    Format/Info : Digital Theater Systems
    Commercial name : DTS-HD Master Audio
    Codec ID : A_DTS
    Duration : 1 h 44 min
    Bit rate mode : Variable
    Bit rate : 2 149 kb/s
    Channel(s) : 6 channels
    Channel layout : C L R Ls Rs LFE
    Sampling rate : 48.0 kHz
    Frame rate : 93.750 FPS (512 SPF)
    Bit depth : 16 bits
    Compression mode : Lossless
    Delay relative to video : 3 ms
    Stream size : 1.57 GiB (8%)
    Language : English
    Default : Yes
    Forced : No



    网盘/云盘/BT 下载 Cloud storage / Cloud disk / BT download
  • 下载电影三步骤
    1、在《4K电影列表》找到并打开电影详情页,点击BT种子文件或复制磁力链,将BT种子下载到电脑中。
    2、电脑安装《BT下载软件》,免费的推荐使用《UTorrent》下载,收费的推荐使用《115网盘》下载(速度又快又稳).
    3、用BT下载软件,打开BT种子、或将磁力链复制粘贴到BT软件中即可下载。


    本站4K电影版块资源99%是真4K,都是从UHD蓝光碟片中提取而来!本站未发布的4K资源,全网都没有(除非假4K),所以发帖求资源也没用。

    下载速度慢怎么办
    1、正常情况使用《UTorrent》跟着网站发布资源节奏下载速度很快,可以达到宽带最大速度(电信)
    2、推荐使用《115网盘》下载速度又快又稳定,请勿使用迅雷下载;
    3、下载慢是有多方面原因,即依赖种子的热度、也要求是电信宽带(非移动/联通),同时选择对的下载软件和软件设置方法。
    4、使用BT协议下载没有速度,请更新《Trackers服务器》能够增加在线用户(越多越好),该方法使用《UTorrent》下载效果显著。
    更多下载问题参考: 4K电影下载新手学院>>

    多个种子/电影版本区别
    蓝光原盘BDMV
    俗称4K蓝光原盘,也就是从4K UHD蓝光碟中提取出来的源文件,由多个m2ts文件组成,与正版盘完全一致,且包含了光盘所有内容 (影片花絮、字幕、导航菜单、多语言多音轨、HDR 信息)等等,文件体积大,一部电影约有60GB+。此版本资源一般以「BDMV 文件夹」或「BDISO」 (iso) 格式发布;该版本可以用刻录机成带导航的光盘效果。

    DIY蓝光原盘BDMV
    经资源制作组基于蓝光原盘BDMV版本进行第二次DIY的版本,将片头AE特效、画面HDR调色、封装国语音轨、封装中文简体/繁体/英文等多语言字幕,更精彩的是是特效字幕(将电影画面中某些细节翻译成中文字幕)。

    蓝光BD-REMUX
    俗称REMUX,可以视为「音画质无损的精简版」"4K原盘",它其实就是将原盘里多余的一些音轨、花絮、菜单、字幕等东西移除或精简,仅保留主要的视频、主要音轨和部分语言字幕,然后再封装成「单个文件」的 .mkv 格式而来,其音质画质与BDMV蓝光原盘一致,但文件体积上能大幅缩减且成单个文件,在电脑上播放/管理/电视播放/播放器播放和分享起来也更方便。适合追求原盘音画质、不重视花絮周边内容、又希望稍微节省点硬盘空间的朋友。

    WEB-DL/WEBRip/流媒体版本
    WEB-DL 或 WEBRip 格式的影片主要来自 、Amazon Prime Video、Netflix、Hulu、YouTube 等「在线网络高清片源」。尽管这些服务提供了4K分辨率 (部分含 HDR) 的片源,但它们为了在线观看的流畅性,都会将视频画质进行较大幅度「有损压缩」。 WEB-DL 是 Web Download 的意思,指通过技术手段「直接下载」回来的在线视频 WEBRip 很多时候则是通过"屏幕转录"等方式二次录制,会造成多一次的画质损失。



    网盘/云盘/BT 下载 Cloud storage / Cloud disk / BT download
阿罗哈[中英字幕].Aloha.2015.WEB-DL.2160p.x265.10bit-MiniHD 4k电影

阿罗哈[中英字幕].Aloha.2015.WEB-DL.2160p.x265.10bit-MiniHD 4k电影下载-20.52GB

阿罗哈[中英字幕].Aloha.2015.WEB-DL.2160p.x265.10bit-MiniHD.torrent ( 52.28 KB )



回复

使用道具 举报

全部回复0 显示全部楼层

声明:您在社区发表的所有信息仅代表用户个人观点,与本网站立场无关,希望各位烧友理性发言,不发表违法国家法律禁止的话题。

您需要登录后才可以回帖 登录 | 立即注册

本版积分规则

联系客服 关注微信 下载APP 返回顶部 返回列表