开启左侧

爱死亡和机器人 第三季 Love.Death.&.Robots.S03.1080p.NF.WEBRip.CHS-HAN@CHAOSPACE 1080p美剧下载-5GB

 
4k演示 发表于 2022-6-2 16:23:45 | 显示全部楼层 |阅读模式
爱死亡和机器人 豆瓣评分: 8.6分

状态:第三季(完结)
上映时间:2022-05-20
类型:喜剧 惊悚 科幻 动画 奇幻 短片 
地区:美国
导演:帕特里克·奥斯本 / 大卫·芬奇 / 埃米莉·迪恩 / 罗伯特·比斯 / 安迪·里昂 / 吕寅荣 / 蒂姆·米勒 / 卡洛斯·史蒂文斯 / 杰罗姆·陈 / 阿尔贝托·米尔戈
主演:乔什·布雷纳 / 加里·安东尼·威廉斯 / 凯蒂·洛斯 / 克里斯·帕内尔 / 特罗伊·贝克
画质标准:超清(1920x1080) 音轨编码:其他AAC  2.0声道 字幕语言:中文简体 封装格式:MP4 资源大小:5GB
  • 剧集下载
  • 剧集简介
  • 资源INFO
  • 下载说明
  • 《爱死亡和机器人》网盘/云盘/BT 下载 Cloud storage / Cloud disk / BT download
     登陆/注册后可查看
  • 《爱死亡和机器人》简介 Episode Introduction
      艾美奖获奖动画选集《爱、死亡 & 机器人》第三部回归,由蒂姆·米勒(《死侍》《终结者:黑暗命运》)和大卫·芬奇(《心灵猎人》《曼克》)担任监制。恐怖、想象力和美在新剧集中完美融合,从揭示古老的邪恶力量到喜剧般的末日,剧集以标志性的巧思和创造性的视觉效果,为观众带来令人震惊的奇幻、恐怖和科幻短篇故事...


    《爱死亡和机器人》网盘/云盘/BT 下载 Cloud storage / Cloud disk / BT download
     登陆/注册后可查看
  • 《爱死亡和机器人》影片INFO Video INFO



    《爱死亡和机器人》网盘/云盘/BT 下载 Cloud storage / Cloud disk / BT download
     登陆/注册后可查看
  • 下载本版资源三步骤
    1、在《4K电视剧列表》找到并打开剧集下载页,点击下载框按钮或复制磁力链,将BT种子下载到电脑中。
    2、电脑安装《BT下载软件》,免费的推荐使用《UTorrent》下载,收费的推荐使用《115网盘》下载(速度又快又稳).
    3、用BT下载软件,打开BT种子、或将磁力链复制粘贴到BT软件中即可下载。


    本站4K电影版块资源99%是真4K,都是从UHD蓝光碟片中提取而来!本站未发布的4K资源,全网都没有(除非假4K),所以发帖求资源也没用。

    下载速度慢怎么办
    1、正常情况使用《UTorrent》跟着网站发布资源节奏下载速度很快,可以达到宽带最大速度(电信)
    2、推荐使用《115网盘》下载速度又快又稳定,请勿使用迅雷下载;
    3、下载慢是有多方面原因,即依赖种子的热度、也要求是电信宽带(非移动/联通),同时选择对的下载软件和软件设置方法。
    4、使用BT协议下载没有速度,请更新《Trackers服务器》能够增加在线用户(越多越好),该方法使用《UTorrent》下载效果显著。
    更多下载问题参考: 4K电影下载新手学院>>

    多个种子/电影版本区别
    蓝光原盘BDMV
    俗称4K蓝光原盘,也就是从4K UHD蓝光碟中提取出来的源文件,由多个m2ts文件组成,与正版盘完全一致,且包含了光盘所有内容 (影片花絮、字幕、导航菜单、多语言多音轨、HDR 信息)等等,文件体积大,一部电影约有60GB+。此版本资源一般以「BDMV 文件夹」或「BDISO」 (iso) 格式发布;该版本可以用刻录机成带导航的光盘效果。

    DIY蓝光原盘BDMV
    经资源制作组基于蓝光原盘BDMV版本进行第二次DIY的版本,将片头AE特效、画面HDR调色、封装国语音轨、封装中文简体/繁体/英文等多语言字幕,更精彩的是是特效字幕(将电影画面中某些细节翻译成中文字幕)。

    蓝光BD-REMUX
    俗称REMUX,可以视为「音画质无损的精简版」"4K原盘",它其实就是将原盘里多余的一些音轨、花絮、菜单、字幕等东西移除或精简,仅保留主要的视频、主要音轨和部分语言字幕,然后再封装成「单个文件」的 .mkv 格式而来,其音质画质与BDMV蓝光原盘一致,但文件体积上能大幅缩减且成单个文件,在电脑上播放/管理/电视播放/播放器播放和分享起来也更方便。适合追求原盘音画质、不重视花絮周边内容、又希望稍微节省点硬盘空间的朋友。

    WEB-DL/WEBRip/流媒体版本
    WEB-DL 或 WEBRip 格式的影片主要来自 、Amazon Prime Video、Netflix、Hulu、YouTube 等「在线网络高清片源」。尽管这些服务提供了4K分辨率 (部分含 HDR) 的片源,但它们为了在线观看的流畅性,都会将视频画质进行较大幅度「有损压缩」。 WEB-DL 是 Web Download 的意思,指通过技术手段「直接下载」回来的在线视频 WEBRip 很多时候则是通过"屏幕转录"等方式二次录制,会造成多一次的画质损失。



    《爱死亡和机器人》网盘/云盘/BT 下载 Cloud storage / Cloud disk / BT download
     登陆/注册后可查看
本帖最后由 4k演示 于 2022-6-2 16:29 编辑

影片参数
General
Format                         : MPEG-4
Format profile                 : Base Media
Codec ID                       : isom (isom/iso2/avc1/mp41)
File size                      : 452 MiB
Duration                       : 22 min 42 s
Overall bit rate mode          : Variable
Overall bit rate               : 2 785 kb/s
Writing application            : Bandicut 3.6.6.676 / Joiner / HS+


Video
ID                             : 1
Format                         : AVC
Format/Info                    : Advanced Video Codec
Format profile                 : Main@L4
Format settings                : CABAC / 3 Ref Frames
Format settings, CABAC         : Yes
Format settings, Reference fra : 3 frames
Codec ID                       : avc1
Codec ID/Info                  : Advanced Video Coding
Duration                       : 22 min 42 s
Bit rate mode                  : Variable
Bit rate                       : 2 591 kb/s
Maximum bit rate               : 2 000 kb/s
Width                          : 1 920 pixels
Height                         : 1 080 pixels
Display aspect ratio           : 16:9
Frame rate mode                : Variable
Frame rate                     : 24.000 FPS
Minimum frame rate             : 22.221 FPS
Maximum frame rate             : 24.000 FPS
Color space                    : YUV
Chroma subsampling             : 4:2:0
Bit depth                      : 8 bits
Scan type                      : Progressive
Bits/(Pixel*Frame)             : 0.052
Stream size                    : 421 MiB (93%)
Codec configuration box        : avcC


Audio
ID                             : 2
Format                         : AAC LC SBR
Format/Info                    : Advanced Audio Codec Low Complexity with Spectral Band Replication
Commercial name                : HE-AAC
Format settings                : Explicit
Codec ID                       : mp4a-40-2
Duration                       : 22 min 42 s
Bit rate mode                  : Constant
Bit rate                       : 192 kb/s
Channel(s)                     : 6 channels
Channel layout                 : C L R Ls Rs LFE
Sampling rate                  : 48.0 kHz
Frame rate                     : 23.438 FPS (2048 SPF)
Compression mode               : Lossy
Stream size                    : 31.2 MiB (7%)
Default                        : Yes
Alternate group                : 1

4K321提示您 点击下方附件名称 即可开始下载

爱死亡和机器人 第三季 Love.Death.&.Robots.S03.1080p.NF.WEBRip.CHS-HAN@CHAOSPACE 1080P美剧下载


爱死亡和机器人 第三季 Love.Death.&.Robots.S03.1080p.NF.WEBRip.CHS-HAN@CHAOSPACE

链接: https://pan.baidu.com/s/13CImg3TN_PEMqAGGjmB8Vg
提取码:
游客,如果您要查看本帖隐藏内容请回复


注:如果链接失效 请留言反馈修复

回复

使用道具 举报

全部回复23 显示全部楼层
耍耍_DHDV 发表于 2022-6-4 13:09:38 | 显示全部楼层
谢谢分享
回复

使用道具 举报

4kproNhV4EgpZ手机认证 发表于 2022-6-5 12:54:25 | 显示全部楼层
感谢!!!
回复

使用道具 举报

寻羊冒险猫手机认证 发表于 2022-6-5 22:44:48 | 显示全部楼层
好看,还是第一部震撼最大
回复 支持 反对

使用道具 举报

骨拉D神 发表于 2022-6-7 13:56:37 | 显示全部楼层
好人一生平安,啥时候上4K
回复 支持 反对

使用道具 举报

yzling手机认证 发表于 2022-6-7 14:12:53 | 显示全部楼层
豆瓣高分 感谢 看看
回复 支持 反对

使用道具 举报

calvin0 发表于 2022-6-13 00:56:04 | 显示全部楼层
谢谢:lol:lol:lol:lol
回复

使用道具 举报

莫再提手机认证 发表于 2022-6-23 20:10:27 | 显示全部楼层
LLLLLLLLLLLLLLLLLL
回复 支持 反对

使用道具 举报

陈胖子 发表于 2022-6-25 19:03:31 | 显示全部楼层
嗯嗯嗯?加油啊
回复 支持 反对

使用道具 举报

liuxiangdiyi 发表于 2022-6-30 11:30:26 来自手机 | 显示全部楼层
回复回话
回复

使用道具 举报

声明:您在社区发表的所有信息仅代表用户个人观点,与本网站立场无关,希望各位烧友理性发言,不发表违法国家法律禁止的话题。

您需要登录后才可以回帖 登录 | 立即注册

本版积分规则

联系客服 关注微信 下载APP 返回顶部 返回列表