开启左侧

以寡敌众[简繁英字幕].Widows.2018.BluRay.2160p.x265.10bit.HDR.2Audio-MiniHD 4k电影

蓝鸟 发表于 2022-6-2 15:47:16 | 显示全部楼层 |阅读模式
以寡敌众 豆瓣评分: 6.1分
上映时间:2018年        影片时长:129分钟
类型:剧情 惊悚 犯罪 
地区:美国 
导演:史蒂夫·麦奎因
主演:维奥拉·戴维斯 / 连姆·尼森 / 乔·博恩瑟 / 曼努埃尔·加西亚-鲁尔福 / 科布恩·格罗斯
画质标准:4K HDR  封装音轨:ACC 2.0 
  • 电影下载
  • 影片简介
  • 影片参数
  • 下载说明
  • 网盘/云盘/BT 下载 Cloud storage / Cloud disk / BT download
  • 《以寡敌众》剧情简介 Film Introduction
      大盗哈里(连姆·尼森 Liam Neeson 饰)和其同伴在一场抢劫行动中不幸身亡,赃款下落不明。他的妻子维罗妮卡(维奥拉·戴维斯 Viola Davis 饰)不仅要承受丧夫之痛,还要警惕来自当地的黑帮兄弟贾马尔(布莱恩·泰里·亨利 Brian Tyree Henry 饰)和杰特米(丹尼尔·卡卢亚 Daniel Kaluuya 饰)的死亡威胁,他们想要得到那笔赃款。
    实际上,维罗妮卡拥有一项秘密武器,那就是哈里的秘密笔记,他将自己的所有抢劫计划非常详细的记录了下来,其中还包括他的下一个行动计划。维罗妮卡藏起了笔记,找到了哈里同伴的妻子琳达(米歇尔·罗德里格兹 Michelle Rodriguez 饰)和爱丽丝(伊丽莎白·德比齐 Elizabeth Debicki 饰),三个女人决定靠着笔记为自己搞一大笔钱。

    获奖情况 (共26项)
      第72届英国电影学院奖 (2019)
      电影奖 最佳女主角(提名)
       └──维奥拉·戴维斯
      第21届美国服装设计工会奖 (2019)
      现代电影最佳服装设计(提名)
       └──珍妮·伊根
      第6届美国化妆及发型设计工会奖 (2019)
      电影类最佳现代戏化妆(提名)
      电影类最佳现代戏发型设计(提名)
      第24届美国评论家选择电影奖 (2019)
      最佳群戏(提名)
      最佳动作片(提名)
      最佳剪辑(提名)
      第23届金卫星奖 (2019)
      电影部门 最佳剧情片(提名)
      电影部门 剧情片最佳女主角(提名)
       └──维奥拉·戴维斯
      电影部门 最佳原创配乐(提名)
      电影部门 最佳剪辑(提名)
      第53届美国国家影评人协会奖 (2019)
      最佳男配角(提名)
       └──布莱恩·泰里·亨利
      最佳女配角(提名)
       └──伊丽莎白·德比茨基
      第17届华盛顿影评人协会奖 (2018)
      最佳群戏(提名)
      最佳剪辑(提名)
      最佳原创配乐(提名)
       └──汉斯·季默
      第39届伦敦影评人协会奖 (2019)
      年度编剧(提名)
      年度男配角(提名)
       └──丹尼尔·卡卢亚
      年度女配角(提名)
       └──伊丽莎白·德比茨基
      年度英国/爱尔兰男演员(提名)
       └──丹尼尔·卡卢亚
      第44届洛杉矶影评人协会奖 (2018)
      最佳女配角(提名)
       └──伊丽莎白·德比茨基
      第31届芝加哥影评人协会奖 (2018)
      最佳女配角(提名)
       └──伊丽莎白·德比茨基
      最佳剪辑(提名)
       └──乔·沃克
      第22届美国在线影评人协会奖 (2019)
      最佳女配角(提名)
       └──伊丽莎白·德比茨基
      最佳改编剧本(提名)
      最佳剪辑(提名)


    网盘/云盘/BT 下载 Cloud storage / Cloud disk / BT download
  • 《以寡敌众》影片INFO Video INFO
    General
    Unique ID : 287453582338976107021232536647748117027 (0xD8418BD2C4646F16456DA9D9C65D6223)
    Complete name : Widows.2018.BluRay.2160p.x265.10bit.HDR.2Audio-MiniHD.mkv
    Format : Matroska
    Format version : Version 4
    File size : 26.9 GiB
    Duration : 2 h 9 min
    Overall bit rate mode : Variable
    Overall bit rate : 29.8 Mb/s
    Encoded date : UTC 2019-02-06 01:34:02
    Writing application : mkvmerge v20.0.0 (\'I Am The Sun\') 64-bit
    Writing library : libebml v1.3.5 + libmatroska v1.4.8
    Video
    ID : 1
    Format : HEVC
    Format/Info : High Efficiency Video Coding
    Format profile : Main 10@L5.1@High
    HDR format : SMPTE ST 2086, HDR10 compatible
    Codec ID : V_MPEGH/ISO/HEVC
    Duration : 2 h 9 min
    Bit rate : 23.9 Mb/s
    Width : 3 840 pixels
    Height : 1 604 pixels
    Display aspect ratio : 2.40:1
    Frame rate mode : Constant
    Frame rate : 23.976 (24000/1001/53875) FPS
    Color space : YUV
    Chroma subsampling : 4:2:0
    Bit depth : 10 bits
    Bits/(Pixel*Frame) : 0.162
    Stream size : 21.6 GiB (80%)
    Writing library : x265 2.9+2-g3691e1f72+19:[Windows][GCC 7.1.0][64 bit] Yuuki 10bit
    Encoding settings : rc=crf / crf=18.0000 / qcomp=0.70 / qpstep=4 / vbv-maxrate=160000 / vbv-bufsize=160000 / vbv-init=0.9 / crf-max=0.0 / crf-min=0.0 / aq-mode=1 / aq-strength=0.90 / cbqpoffs=-3 / crqpoffs=-3 / ipratio=1.40 / pbratio=1.30 / psy-rd=2.00 / psy-rdoq=5.00 / deblock=-1:-1 / ref=5 / bframes=9 / b-adapt=2 / bframe-bias=0 / b-pyramid / b-intra / weightp / weightb / min-keyint=23 / max-keyint=300 / rc-lookahead=40 / gop-lookahead=0 / NTM4NzU=uuDQuD2mJt9fsCf / scenecut=40 / radl=0 / max-cu-size=32 / min-cu-size=8 / me=3 / subme=4 / merange=25 / rdoq-level=2 / rd=4 / rdpenalty=1 / ----- / cutree / no-sao / no-rect / no-amp / no-open-gop / wpp / no-pmode / no-pme / no-psnr / no-ssim / nr-intra=0 / nr-inter=0 / no-constrained-intra / no-strong-intra-smoothing / max-tu-size=32 / tu-inter-depth=2 / tu-intra-depth=2 / limit-tu=4 / qg-size=32 / qpmax=69 / qpmin=0 / ----- / cpuid=538751111039 / frame-threads=5 / numa-pools=84,- / log-level=2 / input-csp=1 / input-res=3840x1604 / interlace=0 / level-idc=0 / high-tier=1 / uhd-bd=0 / no-allow-non-conformance / no-repeat-headers / no-aud / hrd / info / hash=0 / no-temporal-layers / lookahead-slices=4 / no-intra-refresh / dynamic-rd=0.00 / no-ssim-rd / signhide / no-tskip / max-merge=3 / limit-refs=2 / limit-modes / temporal-mvp / no-analyze-src-pics / no-sao-non-deblock / no-early-skip / no-rskip / no-fast-intra / no-tskip-fast / no-cu-lossless / no-splitrd-skip / no-rd-refine / no-lossless / zone-count=0 / no-strict-cbr / no-rc-grain / no-const-vbv / sar=0 / overscan=0 / videoformat=5 / range=0 / colorprim=9 / transfer=16 / colormatrix=9 / chromaloc=0 / display-window=0 / master-display=G(13250,34500)B(7500,3000)R(34000,16000)WP(15635,16450)L(10000000,50) / max-cll=0,0 / min-luma=0 / max-luma=1023 / log2-max-poc-lsb=8 / vui-timing-info / vui-hrd-info / slices=1 / no-opt-qp-pps / no-opt-ref-list-length-pps / no-multi-pass-opt-rps / scenecut-bias=0.05 / no-opt-cu-delta-qp / no-aq-motion / hdr / hdr-opt / no-dhdr10-opt / no-idr-recovery-sei / analysis-reuse-level=5 / scale-factor=0 / refine-intra=0 / refine-inter=0 / refine-mv=0 / no-limit-sao / ctu-info=0 / no-lowpass-dct / refine-mv-type=0 / copy-pic=1 / max-ausize-factor=1.0 / no-dynamic-refine / no-single-sei
    Default : Yes
    Forced : No
    Color range : Limited
    Color primaries : BT.2020
    Transfer characteristics : PQ
    Matrix coefficients : BT.2020 non-constant
    Mastering display color primaries : Display P3
    Mastering display luminance : min: 0.0050 cd/m2, max: 1000 cd/m2
    Audio #1
    ID : 2
    Format : MLP FBA 16-ch
    Format/Info : Meridian Lossless Packing FBA with 16-channel presentation
    Commercial name : Dolby TrueHD with Dolby Atmos
    Codec ID : A_TRUEHD
    Duration : 2 h 9 min
    Bit rate mode : Variable
    Bit rate : 4 218 kb/s
    Maximum bit rate : 7 818 kb/s
    Channel(s) : 8 channels
    Channel layout : L R C LFE Ls Rs Lb Rb
    Sampling rate : 48.0 kHz
    Frame rate : 1 200.000 FPS (40 SPF)
    Compression mode : Lossless
    Stream size : 3.82 GiB (14%)
    Title : 英语全景声
    Language : English
    Default : Yes
    Forced : No
    Number of dynamic objects : 13
    Bed channel count : 1 channel
    Bed channel configuration : LFE
    Audio #2
    ID : 3
    Format : DTS
    Format/Info : Digital Theater Systems
    Codec ID : A_DTS
    Duration : 2 h 9 min
    Bit rate mode : Constant
    Bit rate : 1 509 kb/s
    Channel(s) : 6 channels
    Channel layout : C L R Ls Rs LFE
    Sampling rate : 48.0 kHz
    Frame rate : 93.750 FPS (512 SPF)
    Bit depth : 24 bits
    Compression mode : Lossy
    Stream size : 1.37 GiB (5%)
    Title : 英语DTS
    Language : English
    Default : No
    Forced : No



    网盘/云盘/BT 下载 Cloud storage / Cloud disk / BT download
  • 下载电影三步骤
    1、在《4K电影列表》找到并打开电影详情页,点击BT种子文件或复制磁力链,将BT种子下载到电脑中。
    2、电脑安装《BT下载软件》,免费的推荐使用《UTorrent》下载,收费的推荐使用《115网盘》下载(速度又快又稳).
    3、用BT下载软件,打开BT种子、或将磁力链复制粘贴到BT软件中即可下载。


    本站4K电影版块资源99%是真4K,都是从UHD蓝光碟片中提取而来!本站未发布的4K资源,全网都没有(除非假4K),所以发帖求资源也没用。

    下载速度慢怎么办
    1、正常情况使用《UTorrent》跟着网站发布资源节奏下载速度很快,可以达到宽带最大速度(电信)
    2、推荐使用《115网盘》下载速度又快又稳定,请勿使用迅雷下载;
    3、下载慢是有多方面原因,即依赖种子的热度、也要求是电信宽带(非移动/联通),同时选择对的下载软件和软件设置方法。
    4、使用BT协议下载没有速度,请更新《Trackers服务器》能够增加在线用户(越多越好),该方法使用《UTorrent》下载效果显著。
    更多下载问题参考: 4K电影下载新手学院>>

    多个种子/电影版本区别
    蓝光原盘BDMV
    俗称4K蓝光原盘,也就是从4K UHD蓝光碟中提取出来的源文件,由多个m2ts文件组成,与正版盘完全一致,且包含了光盘所有内容 (影片花絮、字幕、导航菜单、多语言多音轨、HDR 信息)等等,文件体积大,一部电影约有60GB+。此版本资源一般以「BDMV 文件夹」或「BDISO」 (iso) 格式发布;该版本可以用刻录机成带导航的光盘效果。

    DIY蓝光原盘BDMV
    经资源制作组基于蓝光原盘BDMV版本进行第二次DIY的版本,将片头AE特效、画面HDR调色、封装国语音轨、封装中文简体/繁体/英文等多语言字幕,更精彩的是是特效字幕(将电影画面中某些细节翻译成中文字幕)。

    蓝光BD-REMUX
    俗称REMUX,可以视为「音画质无损的精简版」"4K原盘",它其实就是将原盘里多余的一些音轨、花絮、菜单、字幕等东西移除或精简,仅保留主要的视频、主要音轨和部分语言字幕,然后再封装成「单个文件」的 .mkv 格式而来,其音质画质与BDMV蓝光原盘一致,但文件体积上能大幅缩减且成单个文件,在电脑上播放/管理/电视播放/播放器播放和分享起来也更方便。适合追求原盘音画质、不重视花絮周边内容、又希望稍微节省点硬盘空间的朋友。

    WEB-DL/WEBRip/流媒体版本
    WEB-DL 或 WEBRip 格式的影片主要来自 、Amazon Prime Video、Netflix、Hulu、YouTube 等「在线网络高清片源」。尽管这些服务提供了4K分辨率 (部分含 HDR) 的片源,但它们为了在线观看的流畅性,都会将视频画质进行较大幅度「有损压缩」。 WEB-DL 是 Web Download 的意思,指通过技术手段「直接下载」回来的在线视频 WEBRip 很多时候则是通过"屏幕转录"等方式二次录制,会造成多一次的画质损失。



    网盘/云盘/BT 下载 Cloud storage / Cloud disk / BT download
以寡敌众[简繁英字幕].Widows.2018.BluRay.2160p.x265.10bit.HDR.2Audio-MiniHD 4k电影

以寡敌众[简繁英字幕].Widows.2018.BluRay.2160p.x265.10bit.HDR.2Audio-MiniHD 4k电影下载

以寡敌众[简繁英字幕].Widows.2018.BluRay.2160p.x265.10bit.HDR.2Audio-MiniHD.torrent ( 68.38 KB )



回复

使用道具 举报

全部回复0 显示全部楼层

声明:您在社区发表的所有信息仅代表用户个人观点,与本网站立场无关,希望各位烧友理性发言,不发表违法国家法律禁止的话题。

您需要登录后才可以回帖 登录 | 立即注册

本版积分规则

联系客服 关注微信 下载APP 返回顶部 返回列表