开启左侧

德黑兰 第二季4k.Tehran.S02E01.2160p.WEB.H265-4k美剧下载-7.32 GB

4k演示 发表于 2022-6-2 12:36:43 | 显示全部楼层 |阅读模式
德黑兰 豆瓣评分: 8.2分

状态:第二季(更新至第5集 共8集)
上映时间:2022-05-06
类型:动作 剧情 惊悚 犯罪 
地区:美国
导演:妮芙·苏丹 / 格伦·克洛斯 / 毕扬·丹斯曼 / Shervin Alenabi / Damon Zolfaghari
主演:妮芙·苏丹 / 格伦·克洛斯 / 毕扬·丹斯曼 / Shervin Alenabi / Damon Zolfaghari
画质标准:4K(3840x2160) 音轨编码:其他DD  5.1声道 字幕语言:英文原版 封装格式:MKV 资源大小:7.32GB
  • 剧集下载
  • 剧集简介
  • 资源INFO
  • 下载说明
  • 《德黑兰》网盘/云盘/BT 下载 Cloud storage / Cloud disk / BT download
     登陆/注册后可查看
  • 《德黑兰》简介 Episode Introduction
      Apple TV+续订《德黑兰》第二季。
      从第二季开始,本剧会成为Apple TV+在全世界范围的原创剧集,在以色列当地会同时上线Apple TV+和在Kan 11播出...


    《德黑兰》网盘/云盘/BT 下载 Cloud storage / Cloud disk / BT download
     登陆/注册后可查看
  • 《德黑兰》影片INFO Video INFO



    《德黑兰》网盘/云盘/BT 下载 Cloud storage / Cloud disk / BT download
     登陆/注册后可查看
  • 下载本版资源三步骤
    1、在《4K电视剧列表》找到并打开剧集下载页,点击下载框按钮或复制磁力链,将BT种子下载到电脑中。
    2、电脑安装《BT下载软件》,免费的推荐使用《UTorrent》下载,收费的推荐使用《115网盘》下载(速度又快又稳).
    3、用BT下载软件,打开BT种子、或将磁力链复制粘贴到BT软件中即可下载。


    本站4K电影版块资源99%是真4K,都是从UHD蓝光碟片中提取而来!本站未发布的4K资源,全网都没有(除非假4K),所以发帖求资源也没用。

    下载速度慢怎么办
    1、正常情况使用《UTorrent》跟着网站发布资源节奏下载速度很快,可以达到宽带最大速度(电信)
    2、推荐使用《115网盘》下载速度又快又稳定,请勿使用迅雷下载;
    3、下载慢是有多方面原因,即依赖种子的热度、也要求是电信宽带(非移动/联通),同时选择对的下载软件和软件设置方法。
    4、使用BT协议下载没有速度,请更新《Trackers服务器》能够增加在线用户(越多越好),该方法使用《UTorrent》下载效果显著。
    更多下载问题参考: 4K电影下载新手学院>>

    多个种子/电影版本区别
    蓝光原盘BDMV
    俗称4K蓝光原盘,也就是从4K UHD蓝光碟中提取出来的源文件,由多个m2ts文件组成,与正版盘完全一致,且包含了光盘所有内容 (影片花絮、字幕、导航菜单、多语言多音轨、HDR 信息)等等,文件体积大,一部电影约有60GB+。此版本资源一般以「BDMV 文件夹」或「BDISO」 (iso) 格式发布;该版本可以用刻录机成带导航的光盘效果。

    DIY蓝光原盘BDMV
    经资源制作组基于蓝光原盘BDMV版本进行第二次DIY的版本,将片头AE特效、画面HDR调色、封装国语音轨、封装中文简体/繁体/英文等多语言字幕,更精彩的是是特效字幕(将电影画面中某些细节翻译成中文字幕)。

    蓝光BD-REMUX
    俗称REMUX,可以视为「音画质无损的精简版」"4K原盘",它其实就是将原盘里多余的一些音轨、花絮、菜单、字幕等东西移除或精简,仅保留主要的视频、主要音轨和部分语言字幕,然后再封装成「单个文件」的 .mkv 格式而来,其音质画质与BDMV蓝光原盘一致,但文件体积上能大幅缩减且成单个文件,在电脑上播放/管理/电视播放/播放器播放和分享起来也更方便。适合追求原盘音画质、不重视花絮周边内容、又希望稍微节省点硬盘空间的朋友。

    WEB-DL/WEBRip/流媒体版本
    WEB-DL 或 WEBRip 格式的影片主要来自 、Amazon Prime Video、Netflix、Hulu、YouTube 等「在线网络高清片源」。尽管这些服务提供了4K分辨率 (部分含 HDR) 的片源,但它们为了在线观看的流畅性,都会将视频画质进行较大幅度「有损压缩」。 WEB-DL 是 Web Download 的意思,指通过技术手段「直接下载」回来的在线视频 WEBRip 很多时候则是通过"屏幕转录"等方式二次录制,会造成多一次的画质损失。



    《德黑兰》网盘/云盘/BT 下载 Cloud storage / Cloud disk / BT download
     登陆/注册后可查看
影片参数
德黑兰 第二季4k.Tehran.S02E01.2160p.WEB.H265-4k美剧信息
Video
ID : 1
Format : HEVC
Format/Info : High Efficiency Video Coding
Format profile : Main 10@L5@High
Codec ID : V_MPEGH/ISO/HEVC
Duration : 49 min 18 s
Bit rate : 20.1 Mb/s
Width : 3 840 pixels
Height : 1 606 pixels
Display aspect ratio : 2.40:1
Frame rate mode : Constant
Frame rate : 23.976 (24000/1001) FPS
Color space : YUV
Chroma subsampling : 4:2:0
Bit depth : 10 bits
Bits/(Pixel*Frame) : 0.136
Stream size : 6.91 GiB (94%)
Language : English
Default : Yes
Forced : No
Color range : Limited
Color primaries : BT.709
Transfer characteristics : BT.709
Matrix coefficients : BT.709

Audio
ID : 2
Format : E-AC-3 JOC
Format/Info : Enhanced AC-3 with Joint Object Coding
Commercial name : Dolby Digital Plus with Dolby Atmos
Codec ID : A_EAC3
Duration : 49 min 18 s
Bit rate mode : Constant
Bit rate : 768 kb/s
Channel(s) : 6 channels
Channel layout : L R C LFE Ls Rs
Sampling rate : 48.0 kHz
Frame rate : 31.250 FPS (1536 SPF)
Compression mode : Lossy
Stream size : 271 MiB (4%)
Language : Hebrew
Service kind : Complete Main
Default : Yes
Forced : No
Complexity index : 16
Number of dynamic objects : 15
Bed channel count : 1 channel
Bed channel configuration : LFE

Text #1
ID : 3
Format : UTF-8
Codec ID : S_TEXT/UTF8
Codec ID/Info : UTF-8 Plain Text
Title : English
Language : English
Default : Yes
Forced : Yes

Text #2
ID : 4
Format : UTF-8
Codec ID : S_TEXT/UTF8
Codec ID/Info : UTF-8 Plain Text
Title : Arabic
Language : Arabic
Default : No
Forced : No

Text #3
ID : 5
Format : UTF-8
Codec ID : S_TEXT/UTF8
Codec ID/Info : UTF-8 Plain Text
Title : Bulgarian
Language : Bulgarian
Default : No
Forced : No

Text #4
ID : 6
Format : UTF-8
Codec ID : S_TEXT/UTF8
Codec ID/Info : UTF-8 Plain Text
Title : Chinese Simplified
Language : Chinese
Default : No
Forced : No

Text #5
ID : 7
Format : UTF-8
Codec ID : S_TEXT/UTF8
Codec ID/Info : UTF-8 Plain Text
Title : Chinese Traditional
Language : Chinese
Default : No
Forced : No

Text #6
ID : 8
Format : UTF-8
Codec ID : S_TEXT/UTF8
Codec ID/Info : UTF-8 Plain Text
Title : Chinese Yue
Language : Chinese
Default : No
Forced : No

Text #7
ID : 9
Format : UTF-8
Codec ID : S_TEXT/UTF8
Codec ID/Info : UTF-8 Plain Text
Title : Czech
Language : Czech
Default : No
Forced : No

4K321提示您 点击下方附件名称 即可开始下载

德黑兰 第二季4k.Tehran.S02E01.2160p.WEB.H265-4k美剧下载

德黑兰 第二季4k.Tehran.S02E01.2160p.WEB.H265自带简繁中字【7.32 GB】

德黑兰 第二季4k.Tehran.S02E01.2160p.WEB.H265-GLHF.torrent ( 19.01 KB )



德黑兰 第二季4k.Tehran.S02E01.HDR.2160p.WEB.H265自带简繁中字【8.88 GB】

德黑兰 第二季4k.Tehran.S02E01.HDR.2160p.WEB.H265-GGEZ.torrent ( 22.91 KB )



德黑兰 第二季4k.Tehran.S02E02.HDR.2160p.WEB.H265自带简繁中字【8.81 GB】

德黑兰 第二季4k.Tehran.S02E02.HDR.2160p.WEB.H265-GLHF.torrent ( 22.73 KB )



德黑兰 第二季4k.Tehran.S02E02.2160p.WEB.H265自带简繁中字【7.70 GB】

德黑兰 第二季4k.Tehran.S02E02.2160p.WEB.H265-GGEZ.torrent ( 19.95 KB )



德黑兰 第二季4k.Tehran.S02E03.HDR.2160p.WEB.H265自带简繁中字【7.25 GB】

德黑兰 第二季4k.Tehran.S02E03.HDR.2160p.WEB.H265-GLHF 1.torrent ( 18.84 KB )



德黑兰 第二季4k.Tehran.S02E04.HEBREW.2160p.ATVP.WEB-DL.DDP5.1.Atmos.DV.MKV.x265自带简繁中字【7.42 GB】

德黑兰 第二季4k.Tehran.S02E04.HEBREW.2160p.ATVP.WEB-DL.DDP5.1.Atmos.DV.MKV.x265-GGEZ 1.torrent ( 19.24 KB )



德黑兰 第二季4k.Tehran.S02E05.2160p.WEB.H265自带简繁中字【5.81 GB】

德黑兰 第二季4k.Tehran.S02E05.2160p.WEB.H265-GLHF 1.torrent ( 15.22 KB )



德黑兰 第一季4K下载:
https://www.4k321.com/thread-103012-1-1.html


回复

使用道具 举报

全部回复0 显示全部楼层

声明:您在社区发表的所有信息仅代表用户个人观点,与本网站立场无关,希望各位烧友理性发言,不发表违法国家法律禁止的话题。

您需要登录后才可以回帖 登录 | 立即注册

本版积分规则

联系客服 关注微信 下载APP 返回顶部 返回列表