开启左侧

第一夫人4k.The.First.Lady.S01E01.2160p.WEB.H265-4k美剧下载-5.93 GB

4k演示 发表于 2022-6-2 11:10:56 | 显示全部楼层 |阅读模式
第一夫人 豆瓣评分: 无评分

状态:第一季(更新至第8集 共10集)
上映时间:2022-04-17
类型:剧情 传记 历史 
地区:美国
导演:珊娜·比尔
主演:吉莲·安德森 / 基弗·萨瑟兰 / 维奥拉·戴维斯 / 米歇尔·菲佛 / 达科塔·范宁
画质标准:4K(3840x2160) 音轨编码:其他DD  5.1声道 字幕语言:中文简体 封装格式:MKV 资源大小:5.93 GBGB
  • 剧集下载
  • 剧集简介
  • 资源INFO
  • 下载说明
  • 《第一夫人》网盘/云盘/BT 下载 Cloud storage / Cloud disk / BT download
     登陆/注册后可查看
  • 《第一夫人》简介 Episode Introduction
      米歇尔·菲佛将主演Showtime新剧《第一夫人们》,扮演杰拉尔德·福特总统的妻子、第一夫人贝蒂·福特。福特在1974年至1977年担任美国第一夫人,她也是历史上和政治上较为活跃的总统夫人之一,热衷于对各种时事热闻发表评论。在她公开与酗酒和药物过量进行斗争之后,她也提高了公众对成瘾的认知。
      该剧由苏珊娜·比尔(《无所作为》)执导,作家亚伦·库利创作,并与获得奥斯卡奖的电影制片人凯茜·舒尔曼、戴维斯、朱利叶斯·特农、安德鲁·王、杰夫·加斯平和布拉德·卡普兰一同担任执行制片人,该剧的第一季将聚焦于三位第一夫人米歇尔·奥巴马、贝蒂·福特和安娜·埃莉诺·罗斯福的个人与政治生活,她们对美国领导层的重塑具有启示性的作用,此前维奥拉·戴维斯曾被宣布将扮演前第一夫人米歇尔·奥巴马...


    《第一夫人》网盘/云盘/BT 下载 Cloud storage / Cloud disk / BT download
     登陆/注册后可查看
  • 《第一夫人》影片INFO Video INFO



    《第一夫人》网盘/云盘/BT 下载 Cloud storage / Cloud disk / BT download
     登陆/注册后可查看
  • 下载本版资源三步骤
    1、在《4K电视剧列表》找到并打开剧集下载页,点击下载框按钮或复制磁力链,将BT种子下载到电脑中。
    2、电脑安装《BT下载软件》,免费的推荐使用《UTorrent》下载,收费的推荐使用《115网盘》下载(速度又快又稳).
    3、用BT下载软件,打开BT种子、或将磁力链复制粘贴到BT软件中即可下载。


    本站4K电影版块资源99%是真4K,都是从UHD蓝光碟片中提取而来!本站未发布的4K资源,全网都没有(除非假4K),所以发帖求资源也没用。

    下载速度慢怎么办
    1、正常情况使用《UTorrent》跟着网站发布资源节奏下载速度很快,可以达到宽带最大速度(电信)
    2、推荐使用《115网盘》下载速度又快又稳定,请勿使用迅雷下载;
    3、下载慢是有多方面原因,即依赖种子的热度、也要求是电信宽带(非移动/联通),同时选择对的下载软件和软件设置方法。
    4、使用BT协议下载没有速度,请更新《Trackers服务器》能够增加在线用户(越多越好),该方法使用《UTorrent》下载效果显著。
    更多下载问题参考: 4K电影下载新手学院>>

    多个种子/电影版本区别
    蓝光原盘BDMV
    俗称4K蓝光原盘,也就是从4K UHD蓝光碟中提取出来的源文件,由多个m2ts文件组成,与正版盘完全一致,且包含了光盘所有内容 (影片花絮、字幕、导航菜单、多语言多音轨、HDR 信息)等等,文件体积大,一部电影约有60GB+。此版本资源一般以「BDMV 文件夹」或「BDISO」 (iso) 格式发布;该版本可以用刻录机成带导航的光盘效果。

    DIY蓝光原盘BDMV
    经资源制作组基于蓝光原盘BDMV版本进行第二次DIY的版本,将片头AE特效、画面HDR调色、封装国语音轨、封装中文简体/繁体/英文等多语言字幕,更精彩的是是特效字幕(将电影画面中某些细节翻译成中文字幕)。

    蓝光BD-REMUX
    俗称REMUX,可以视为「音画质无损的精简版」"4K原盘",它其实就是将原盘里多余的一些音轨、花絮、菜单、字幕等东西移除或精简,仅保留主要的视频、主要音轨和部分语言字幕,然后再封装成「单个文件」的 .mkv 格式而来,其音质画质与BDMV蓝光原盘一致,但文件体积上能大幅缩减且成单个文件,在电脑上播放/管理/电视播放/播放器播放和分享起来也更方便。适合追求原盘音画质、不重视花絮周边内容、又希望稍微节省点硬盘空间的朋友。

    WEB-DL/WEBRip/流媒体版本
    WEB-DL 或 WEBRip 格式的影片主要来自 、Amazon Prime Video、Netflix、Hulu、YouTube 等「在线网络高清片源」。尽管这些服务提供了4K分辨率 (部分含 HDR) 的片源,但它们为了在线观看的流畅性,都会将视频画质进行较大幅度「有损压缩」。 WEB-DL 是 Web Download 的意思,指通过技术手段「直接下载」回来的在线视频 WEBRip 很多时候则是通过"屏幕转录"等方式二次录制,会造成多一次的画质损失。



    《第一夫人》网盘/云盘/BT 下载 Cloud storage / Cloud disk / BT download
     登陆/注册后可查看
本帖最后由 蓝鸟 于 2022-7-5 10:14 编辑

影片参数
第一夫人4k.The.First.Lady.S01E01.2160p.WEB.H265-4k美剧信息
Video
ID : 1
Format : HEVC
Format/Info : High Efficiency Video Coding
Format profile : Main@L5@Main
Codec ID : V_MPEGH/ISO/HEVC
Duration : 54 min 53 s
Bit rate : 14.5 Mb/s
Width : 3 840 pixels
Height : 2 160 pixels
Display aspect ratio : 16:9
Frame rate mode : Constant
Frame rate : 23.976 (24000/1001) FPS
Color space : YUV
Chroma subsampling : 4:2:0
Bit depth : 8 bits
Bits/(Pixel*Frame) : 0.073
Stream size : 5.56 GiB (95%)
Writing library : x265 3.4hy:[Linux][GCC 7.5.0][64 bit] 8bit
Encoding settings : cpuid=1111039 / frame-threads=6 / no-wpp / no-pmode / no-pme / no-psnr / no-ssim / log-level=2 / input-csp=1 / input-res=3840x2160 / interlace=0 / total-frames=0 / level-idc=0 / high-tier=1 / uhd-bd=0 / ref=4 / no-allow-non-conformance / repeat-headers / annexb / aud / hrd / info / hash=0 / no-temporal-layers / no-open-gop / min-keyint=48 / keyint=48 / gop-lookahead=0 / bframes=4 / b-adapt=2 / b-pyramid / bframe-bias=0 / rc-lookahead=48 / lookahead-slices=4 / scenecut=0 / hist-scenecut=0 / radl=0 / no-splice / no-intra-refresh / ctu=64 / min-cu-size=8 / rect / no-amp / max-tu-size=32 / tu-inter-depth=1 / tu-intra-depth=1 / limit-tu=0 / rdoq-level=2 / dynamic-rd=0.00 / no-ssim-rd / signhide / no-tskip / nr-intra=100 / nr-inter=400 / no-constrained-intra / strong-intra-smoothing / max-merge=3 / limit-refs=3 / limit-modes / me=3 / subme=3 / merange=57 / temporal-mvp / no-frame-dup / no-hme / weightp / no-weightb / no-analyze-src-pics / deblock=0:0 / sao / no-sao-non-deblock / rd=4 / selective-sao=4 / no-early-skip / rskip / no-fast-intra / no-tskip-fast / no-cu-lossless / no-b-intra / no-splitrd-skip / rdpenalty=0 / psy-rd=0.00 / psy-rdoq=1.00 / no-rd-refine / no-lossless / cbqpoffs=0 / crqpoffs=0 / rc=abr / bitrate=15000 / qcomp=0.60 / qpstep=4 / stats-write=0 / stats-read=2 / cplxblur=20.0 / qblur=0.5 / vbv-maxrate=18000 / vbv-bufsize=12000 / vbv-init=0.6 / vbv-end=0.6 / vbv-end-fr-adj=0.0 / ipratio=1.40 / pbratio=1.30 / aq-mode=2 / aq-strength=1.00 / cutree / zone-count=0 / no-strict-cbr / qg-size=32 / no-rc-grain / qpmax=69 / qpmin=0 / no-const-vbv / sar=1 / overscan=0 / videoformat=5 / range=0 / colorprim=1 / transfer=1 / colormatrix=1 / chromaloc=0 / display-window=0 / cll=0,0 / min-luma=0 / max-luma=255 / log2-max-poc-lsb=8 / vui-timing-info / vui-hrd-info / no-concatenation / slices=1 / no-opt-qp-pps / no-opt-ref-list-length-pps / no-multi-pass-opt-rps / scenecut-bias=0.05 / hist-threshold=0.01 / no-opt-cu-delta-qp / no-aq-motion / no-hdr10 / no-hdr10-opt / no-dhdr10-opt / no-idr-recovery-sei / analysis-reuse-level=0 / analysis-save-reuse-level=0 / analysis-load-reuse-level=0 / scale-factor=0 / refine-intra=0 / refine-inter=0 / refine-mv=1 / refine-ctu-distortion=0 / no-limit-sao / ctu-info=0 / no-lowpass-dct / refine-analysis-type=0 / copy-pic=1 / max-ausize-factor=1.0 / no-dynamic-refine / no-single-sei / no-hevc-aq / no-svt / no-field / qp-adaptation-range=1.00 / no-scenecut-aware-qpconformance-window-offsets / right=0 / bottom=0 / decoder-max-rate=0
Default : Yes
Forced : No
Color range : Limited
Color primaries : BT.709
Transfer characteristics : BT.709
Matrix coefficients : BT.709


Audio
ID : 2
Format : AC-3
Format/Info : Audio Coding 3
Commercial name : Dolby Digital
Codec ID : A_AC3
Duration : 54 min 53 s
Bit rate mode : Constant
Bit rate : 384 kb/s
Channel(s) : 6 channels
Channel layout : L R C LFE Ls Rs
Sampling rate : 48.0 kHz
Frame rate : 31.250 FPS (1536 SPF)
Compression mode : Lossy
Stream size : 151 MiB (3%)
Language : English
Service kind : Complete Main
Default : Yes
Forced : No


Text
ID : 3
Format : UTF-8
Codec ID : S_TEXT/UTF8
Codec ID/Info : UTF-8 Plain Text
Title : English
Language : English
Default : No
Forced : No

4K321提示您 点击下方附件名称 即可开始下载

多版本下载时请注意区分

第一夫人4k.The.First.Lady.S01E01.2160p.WEB.H265-4k美剧下载

第一夫人4k.The.First.Lady.S01E01.2160p.WEB.H265【4k 5.93 GB】

第一夫人4k.The.First.Lady.S01E01.2160p.WEB.H265-GLHF.torrent ( 15.65 KB )



第一夫人4k.The.First.Lady.S01E01.2160p.WEB-DL.DD5.1.DV.MKV.x265【4k 杜比视界 5.81 GB】

第一夫人4k.The.First.Lady.S01E01.2160p.WEB-DL.DD5.1.DV.MKV.x265-GLHF.torrent ( 15.23 KB )



第一夫人4k.The.First.Lady.S01E01.2160p.WEB-DL.DD5.1.DV.MP4.x265【4k 杜比视界 5.81 GB】

第一夫人4k.The.First.Lady.S01E01.2160p.WEB-DL.DD5.1.DV.MP4.x265-DVSUX.torrent ( 15.17 KB )



第一夫人4k.The.First.Lady.2022.S01E02.HDR.2160p.WEB.H265【4k HDR 5.85 GB】

第一夫人4k.The.First.Lady.2022.S01E02.HDR.2160p.WEB.H265-GGEZ 1.torrent ( 15.37 KB )



第一夫人4k.The.First.Lady.2022.S01E02.2160p.WEB.H265【4k 5.87 GB】

第一夫人4k.The.First.Lady.2022.S01E02.2160p.WEB.H265-GGEZ 1.torrent ( 15.4 KB )



第一夫人4k.The.First.Lady.2022.S01E02.2160p.WEB-DL.DD5.1.DV.MKV.x265【4k 杜比视界 5.87 GB】

第一夫人4k.The.First.Lady.2022.S01E02.2160p.WEB-DL.DD5.1.DV.MKV.x265-GGEZ 1.torrent ( 15.4 KB )



第一夫人4k.The.First.Lady.2022.S01E03.2160p.WEB.H265【4k  6.17GB】

第一夫人4k.The.First.Lady.2022.S01E03.2160p.WEB.H265-GGEZ 1.torrent ( 16.18 KB )



第一夫人4k.The.First.Lady.2022.S01E04.2160p.WEB.H265【4k 6.31GB】

第一夫人4k.The.First.Lady.2022.S01E04.2160p.WEB.H265-GLHF 1.torrent ( 16.51 KB )



第一夫人4k.The.First.Lady.2022.S01E05.HDR.2160p.WEB.h265【4k 5.70 GB】

第一夫人4k.The.First.Lady.2022.S01E05.HDR.2160p.WEB.h265-KOGi 1.torrent ( 15 KB )



第一夫人4k.The.First.Lady.2022.S01E05.2160p.WEB.H265【4k 5.72 GB】

第一夫人4k.The.First.Lady.2022.S01E05.2160p.WEB.H265-GGEZ 1.torrent ( 15.04 KB )



第一夫人4k.The.First.Lady.2022.S01E06.HDR.2160p.WEB.H265【4k 5.85 GB】

第一夫人4k.The.First.Lady.2022.S01E06.HDR.2160p.WEB.H265-GLHF 1.torrent ( 15.37 KB )



第一夫人4k.The.First.Lady.2022.S01E06.2160p.WEB.H265【4k 5.88 GB】

第一夫人4k.The.First.Lady.2022.S01E06.2160p.WEB.H265-GLHF 1.torrent ( 15.43 KB )



第一夫人4k.The.First.Lady.2022.S01E07.HDR.2160p.WEB.H265【4k 5.40 GB】

第一夫人4k.The.First.Lady.2022.S01E07.HDR.2160p.WEB.H265-GLHF.torrent ( 14.26 KB )



第一夫人4k.The.First.Lady.2022.S01E07.2160p.WEB.H265【4k 5.43 GB】

第一夫人4k.The.First.Lady.2022.S01E07.2160p.WEB.H265.torrent ( 14.3 KB )



第一夫人4k.The.First.Lady.2022.S01E07.2160p.WEB-DL.DD5.1.DV.MP4.x265【4k 5.42 GB】

第一夫人4k.The.First.Lady.2022.S01E07.2160p.WEB-DL.DD5.1.DV.MP4.x265-DVSUX.torrent ( 14.2 KB )



第一夫人4k.The.First.Lady.2022.S01E08.HDR.2160p.WEB.H265【4k 5.75 GB】

第一夫人4k.The.First.Lady.2022.S01E08.HDR.2160p.WEB.H265-GLHF.torrent ( 15.11 KB )



第一夫人4k.The.First.Lady.2022.S01E08.2160p.WEB.H265【4k 5.76 GB】

第一夫人4k.The.First.Lady.2022.S01E08.2160p.WEB.H265-GGEZ.torrent ( 15.14 KB )



回复

使用道具 举报

全部回复0 显示全部楼层

声明:您在社区发表的所有信息仅代表用户个人观点,与本网站立场无关,希望各位烧友理性发言,不发表违法国家法律禁止的话题。

您需要登录后才可以回帖 登录 | 立即注册

本版积分规则

联系客服 关注微信 下载APP 返回顶部 返回列表