开启左侧

双虎屠龙4k.The.Man.Who.Shot.Liberty.Valance.1962.2160p.WEB-DL.x265.10bit.HDR.DTS-HD.MA.5.1—4k电影

蓝鸟 发表于 2022-6-2 09:13:35 | 显示全部楼层 |阅读模式
双虎屠龙 豆瓣评分: 8.2分
上映时间:更早        影片时长:123分钟
类型:剧情 爱情 西部 
地区:美国 
导演:约翰·福特
主演:约翰·韦恩 詹姆斯·斯图尔特
画质标准:4K  封装音轨:DTS-HD.MA.2.0 
  • 电影下载
  • 影片简介
  • 影片参数
  • 下载说明
  • 网盘/云盘/BT 下载 Cloud storage / Cloud disk / BT download
  • 《双虎屠龙》剧情简介 Film Introduction
      参议员Ransom "Rance" Stoddard(詹姆斯·斯图尔特 James Stewart饰)带着他的妻子Hallie(维拉·迈尔斯 Vera Miles饰)回到一个小镇去参加一个老朋友Tom的葬礼,他们三人的友情还得追溯到多年前......
      年轻的律师Ransom在来小镇的路上遭到了一路恶棍的抢劫,恶棍们的头领叫Liberty Valance(李·马文 Lee Marvin 饰)。受伤的Ransom被镇里的一家开餐厅的人收留,认识了开餐厅的夫妇的女儿Hallie,同时也结识了爱着Hallie的Tom(约翰·韦恩 John Wayne饰)。镇上的人民也深受Liberty一伙人所害。Ransom开始运用自己的知识启发当地民众,希望用法律途径来惩罚Liberty。而Tom则一次次劝说Ransom离开小镇。在一次选举上,双方的矛盾达到了最高潮。Ransom与Tom联合一同对抗Liberty,这场战争最后的赢家是谁?
      西部片大师约翰·福特于1962年拍摄的西部片,集合了约翰·韦恩与詹姆斯·斯图尔特两大影星。


    网盘/云盘/BT 下载 Cloud storage / Cloud disk / BT download
  • 《双虎屠龙》影片INFO Video INFO
    Video
    ID : 1
    Format : HEVC
    Format/Info : High Efficiency Video Coding
    Format profile : Main 10@L5@High
    HDR format : SMPTE ST 2086, HDR10 compatible
    Codec ID : V_MPEGH/ISO/HEVC
    Duration : 2 h 3 min
    Bit rate : 24.8 Mb/s
    Width : 3 840 pixels
    Height : 2 076 pixels
    Display aspect ratio : 1.85:1
    Frame rate mode : Constant
    Frame rate : 23.976 FPS
    Color space : YUV
    Chroma subsampling : 4:2:0 (Type 2)
    Bit depth : 10 bits
    Bits/(Pixel*Frame) : 0.130
    Stream size : 21.4 GiB (86%)
    Default : Yes
    Forced : No
    Color range : Limited
    Color primaries : BT.2020
    Transfer characteristics : PQ
    Matrix coefficients : BT.2020 non-constant
    Mastering display color primaries : Display P3
    Mastering display luminance : min: 0.0050 cd/m2, max: 1000 cd/m2
    Maximum Content Light Level : 996 cd/m2
    Maximum Frame-Average Light Level : 200 cd/m2
    Audio #1
    ID : 2
    Format : DTS XLL
    Format/Info : Digital Theater Systems
    Commercial name : DTS-HD Master Audio
    Codec ID : A_DTS
    Duration : 2 h 3 min
    Bit rate mode : Variable
    Bit rate : 3 453 kb/s
    Channel(s) : 6 channels
    Channel layout : C L R Ls Rs LFE
    Sampling rate : 48.0 kHz
    Frame rate : 93.750 FPS (512 SPF)
    Bit depth : 24 bits
    Compression mode : Lossless
    Delay relative to video : 10 ms
    Stream size : 2.98 GiB (12%)
    Title : DTS-HD MA 5.1
    Language : English
    Default : Yes
    Forced : No
    Audio #2
    ID : 3
    Format : AC-3
    Format/Info : Audio Coding 3
    Commercial name : Dolby Digital
    Codec ID : A_AC3
    Duration : 2 h 3 min
    Bit rate mode : Constant
    Bit rate : 384 kb/s
    Channel(s) : 6 channels
    Channel layout : L R C LFE Ls Rs
    Sampling rate : 48.0 kHz
    Frame rate : 31.250 FPS (1536 SPF)
    Compression mode : Lossy
    Stream size : 339 MiB (1%)
    Language : English
    Service kind : Complete Main
    Default : Yes
    Forced : No



    网盘/云盘/BT 下载 Cloud storage / Cloud disk / BT download
  • 下载电影三步骤
    1、在《4K电影列表》找到并打开电影详情页,点击BT种子文件或复制磁力链,将BT种子下载到电脑中。
    2、电脑安装《BT下载软件》,免费的推荐使用《UTorrent》下载,收费的推荐使用《115网盘》下载(速度又快又稳).
    3、用BT下载软件,打开BT种子、或将磁力链复制粘贴到BT软件中即可下载。


    本站4K电影版块资源99%是真4K,都是从UHD蓝光碟片中提取而来!本站未发布的4K资源,全网都没有(除非假4K),所以发帖求资源也没用。

    下载速度慢怎么办
    1、正常情况使用《UTorrent》跟着网站发布资源节奏下载速度很快,可以达到宽带最大速度(电信)
    2、推荐使用《115网盘》下载速度又快又稳定,请勿使用迅雷下载;
    3、下载慢是有多方面原因,即依赖种子的热度、也要求是电信宽带(非移动/联通),同时选择对的下载软件和软件设置方法。
    4、使用BT协议下载没有速度,请更新《Trackers服务器》能够增加在线用户(越多越好),该方法使用《UTorrent》下载效果显著。
    更多下载问题参考: 4K电影下载新手学院>>

    多个种子/电影版本区别
    蓝光原盘BDMV
    俗称4K蓝光原盘,也就是从4K UHD蓝光碟中提取出来的源文件,由多个m2ts文件组成,与正版盘完全一致,且包含了光盘所有内容 (影片花絮、字幕、导航菜单、多语言多音轨、HDR 信息)等等,文件体积大,一部电影约有60GB+。此版本资源一般以「BDMV 文件夹」或「BDISO」 (iso) 格式发布;该版本可以用刻录机成带导航的光盘效果。

    DIY蓝光原盘BDMV
    经资源制作组基于蓝光原盘BDMV版本进行第二次DIY的版本,将片头AE特效、画面HDR调色、封装国语音轨、封装中文简体/繁体/英文等多语言字幕,更精彩的是是特效字幕(将电影画面中某些细节翻译成中文字幕)。

    蓝光BD-REMUX
    俗称REMUX,可以视为「音画质无损的精简版」"4K原盘",它其实就是将原盘里多余的一些音轨、花絮、菜单、字幕等东西移除或精简,仅保留主要的视频、主要音轨和部分语言字幕,然后再封装成「单个文件」的 .mkv 格式而来,其音质画质与BDMV蓝光原盘一致,但文件体积上能大幅缩减且成单个文件,在电脑上播放/管理/电视播放/播放器播放和分享起来也更方便。适合追求原盘音画质、不重视花絮周边内容、又希望稍微节省点硬盘空间的朋友。

    WEB-DL/WEBRip/流媒体版本
    WEB-DL 或 WEBRip 格式的影片主要来自 、Amazon Prime Video、Netflix、Hulu、YouTube 等「在线网络高清片源」。尽管这些服务提供了4K分辨率 (部分含 HDR) 的片源,但它们为了在线观看的流畅性,都会将视频画质进行较大幅度「有损压缩」。 WEB-DL 是 Web Download 的意思,指通过技术手段「直接下载」回来的在线视频 WEBRip 很多时候则是通过"屏幕转录"等方式二次录制,会造成多一次的画质损失。



    网盘/云盘/BT 下载 Cloud storage / Cloud disk / BT download
枪杀了理贝特瓦朗斯的人/双虎屠龙4k.The.Man.Who.Shot.Liberty.Valance.1962.2160p.BluRay.HEVC.TrueHD.5.1-4k杜比视界电影下载

双虎屠龙4k.The.Man.Who.Shot.Liberty.Valance.1962.2160p.BluRay.HEVC.TrueHD.5.1【 57.80 GB】

双虎屠龙4k.The.Man.Who.Shot.Liberty.Valance.1962.2160p.BluRay.HEVC.TrueHD.5.1-B0MBARDiERS.torrent ( 90.22 KB )



双虎屠龙4k.The.Man.Who.Shot.Liberty.Valance.1962.2160p.BluRay.REMUX.HEVC.DTS-HD.MA.TrueHD.5.1【 56.31 GB】

双虎屠龙4k.The.Man.Who.Shot.Liberty.Valance.1962.2160p.BluRay.REMUX.HEVC.DTS-HD.MA.TrueHD.5.1-FGT.torrent ( 71.08 KB )



双虎屠龙4k.The.Man.Who.Shot.Liberty.Valance.1962.2160p.WEB-DL.x265.10bit.HDR.DTS-HD.MA.5.1【24.78 GB】

双虎屠龙4k.The.Man.Who.Shot.Liberty.Valance.1962.2160p.WEB-DL.x265.10bit.HDR.DTS-HD.MA.5.1-NOGRP- 4KSJ.torrent ( 31.66 KB )



双虎屠龙4k.The.Man.Who.Shot.Liberty.Valance.1962.2160p.WEB-DL.DTS-HD.MA.5.1.DV.MKV.x265【24.84 GB】

双虎屠龙4k.The.Man.Who.Shot.Liberty.Valance.1962.2160p.WEB-DL.DTS-HD.MA.5.1.DV.MKV.x265-DVSUX- 4KSJ.torrent ( 31.73 KB )



双虎屠龙4k.The.Man.Who.Shot.Liberty.Valance.1962.2160p.WEB-DL.DD5.1.DV.MP4.x265【21.78 GB】

双虎屠龙4k.The.Man.Who.Shot.Liberty.Valance.1962.2160p.WEB-DL.DD5.1.DV.MP4.x265-DVSUX- 4KSJ.torrent ( 27.91 KB )



双虎屠龙中文字幕下载

双虎屠龙 The.Man.Who.Shot.Liberty.Valance.1962.BluRay.720p.AC3.x264-CHD.Chs.srt ( 65.39 KB )



回复

使用道具 举报

全部回复0 显示全部楼层

声明:您在社区发表的所有信息仅代表用户个人观点,与本网站立场无关,希望各位烧友理性发言,不发表违法国家法律禁止的话题。

您需要登录后才可以回帖 登录 | 立即注册

本版积分规则

联系客服 关注微信 下载APP 返回顶部 返回列表