开启左侧

[8K视频] YouTube HDR 8k Best Mix Part 2 Dolby Vision.mp4 - 215MB

 
蓝鸟 发表于 2021-8-9 20:14:09 | 显示全部楼层 |阅读模式
5. HDR 8k Best Mix Part 2 Dolby Vision.jpg

影片参数
General
Format                         : MPEG-4
Format profile                 : Base Media
Codec ID                       : isom (isom/iso2/mp41)
File size                      : 216 MiB
Duration                       : 2 min 47 s
Overall bit rate               : 10.8 Mb/s
Writing application            : Lavf58.29.100


Video
ID                             : 1
Format                         : AV1
Format/Info                    : AOMedia Video 1
Format profile                 : Main@L6.0
Codec ID                       : av01
Duration                       : 2 min 47 s
Bit rate                       : 10.7 Mb/s
Width                          : 7 680 pixels
Height                         : 4 320 pixels
Display aspect ratio           : 16:9
Frame rate mode                : Constant
Frame rate                     : 23.976 (24000/1001) FPS
Color space                    : YUV
Chroma subsampling             : 4:2:0
Bit depth                      : 8 bits
Bits/(Pixel*Frame)             : 0.013
Stream size                    : 213 MiB (99%)
Title                          : ISO Media file produced by Google Inc.
Color range                    : Limited
Color primaries                : BT.2020
Transfer characteristics       : PQ
Matrix coefficients            : BT.2020 non-constant
Codec configuration box        : av1C


Audio
ID                             : 2
Format                         : AAC LC
Format/Info                    : Advanced Audio Codec Low Complexity
Codec ID                       : mp4a-40-2
Duration                       : 2 min 47 s
Bit rate mode                  : Constant
Bit rate                       : 128 kb/s
Channel(s)                     : 2 channels
Channel layout                 : L R
Sampling rate                  : 44.1 kHz
Frame rate                     : 43.066 FPS (1024 SPF)
Compression mode               : Lossy
Stream size                    : 2.56 MiB (1%)
Title                          : ISO Media file produced by Google Inc.
Default                        : Yes
Alternate group                : 1

4K321提示您  点击下方附件名称即可开始下载

YouTube HDR 8k Best Mix Part 2 Dolby Vision.mp4 - 215MB
链接:https://pan.baidu.com/s/1PF75uNwzCGwlEAwPwFPp7A
提取码:
游客,如果您要查看本帖隐藏内容请回复


回复

使用道具 举报

全部回复138 显示全部楼层
创维专卖手机认证 发表于 2021-8-11 11:44:57 | 显示全部楼层
jhikhjghfghf
回复 支持 反对

使用道具 举报

Soyeonxiaoming手机认证 发表于 2021-8-11 18:35:24 来自手机 | 显示全部楼层
支持惹,但是视频感觉不大的样子
回复 支持 反对

使用道具 举报

jian_shao 发表于 2021-8-12 08:14:33 | 显示全部楼层
感谢分享!感谢分享!感谢分享!
回复 支持 反对

使用道具 举报

deank手机认证 发表于 2021-8-22 04:42:45 | 显示全部楼层
一定要下载下来看看
回复 支持 反对

使用道具 举报

4kprocYQLTUN0手机认证 发表于 2021-8-22 20:58:45 | 显示全部楼层
一定要下载下来看看
回复 支持 反对

使用道具 举报

.W. 发表于 2021-8-22 22:47:17 来自手机 | 显示全部楼层
感谢楼主,下载下来看看
回复 支持 反对

使用道具 举报

九哥 发表于 2021-8-23 12:05:26 | 显示全部楼层
。。。。。。。。。:D
回复

使用道具 举报

hsc1109 发表于 2021-8-24 22:40:57 | 显示全部楼层
感谢分享,厉害了
回复 支持 反对

使用道具 举报

strong85 发表于 2021-8-31 17:56:25 | 显示全部楼层
感谢分享
回复

使用道具 举报

声明:您在社区发表的所有信息仅代表用户个人观点,与本网站立场无关,希望各位烧友理性发言,不发表违法国家法律禁止的话题。

您需要登录后才可以回帖 登录 | 立即注册

本版积分规则

联系客服 关注微信 下载APP 返回顶部 返回列表