开启左侧

[其它] 爱因斯坦的宇宙 Einsteins.Universe.1979.1080p.BluRay.x264-HANDJOB 9.77GB

蓝鸟 发表于 2021-1-12 19:36:49 | 显示全部楼层 |阅读模式
20190801120031.jpg


译  名 爱因斯坦的宇宙
片  名 Einstein"s Universe
年  代 1979
产  地 美国
类  别 纪录片
语  言 英语
IMDb评分  7.4/10 from 35 users
IMDb链接  https://www.imdb.com/title/tt6061610
豆瓣评分 0/10 from 0 users
豆瓣链接 https://movie.douban.com/subject/26979296/
片  长 118分钟
主  演 彼得·乌斯蒂诺夫 Peter Ustinov

标  签 纪录片 | 美国 | 替身 | Science | Documentary | 1979
简  介  
  A documentary produced in 1979 to celebrate the centenary of the birth of Albert Einstein. Narrated and hosted by Peter Ustinov and written by Nigel Calder, the film takes place at the University of Texas" McDonald Observatory where a staff of renowned physicists take both Ustinov and the viewer through a hands-on experience of the exciting facets of Einstein"s Theory of General Relativity.
  谷歌为您翻译:
  1979年制作的纪录片,庆祝阿尔伯特·爱因斯坦诞辰一百周年。这部电影由彼得·乌斯汀诺夫(Peter Ustinov)讲述和主持,由奈杰尔·卡尔德(Nigel Calder)撰写,在得克萨斯大学麦当劳天文台举行,在那儿,著名物理学家带领乌斯汀诺夫和观众亲身体验了爱因斯坦理论的激动人心的方面。广义相对论。
  腾讯为您翻译:
  1979年度纪录片,庆祝爱因斯坦诞辰一百周年。该片由彼得·Ustinov(Peter Ustinov)和奈杰尔·Calder(Nigel Calder)撰写并主持,这部电影发生在德克萨斯大学麦克唐纳天文台,著名物理学家的工作人员通过对爱因斯坦广义相对论刺激层面的实践体验来吸引Ustinov和观众。
  本站为您翻译:
  1979年为纪念爱因斯坦诞辰100周年而制作的纪录片。影片由 Peter Ustinov 解说及主持,Nigel Calder 编剧,故事发生在德克萨斯大学麦当劳天文台,一群著名物理学家带领观众亲身体验爱因斯坦的广义相对论理论。


该资源信息参数
  • Video
  • ID                                       : 1
  • Format                                   : AVC
  • Format/Info                              : Advanced Video Codec
  • Format profile                           : High@L4.1
  • Format settings                          : CABAC / 5 Ref Frames
  • Format settings, CABAC                   : Yes
  • Format settings, Reference frames        : 5 frames
  • Codec ID                                 : V_MPEG4/ISO/AVC
  • Duration                                 : 1 h 57 min
  • Bit rate                                 : 11.7 Mb/s
  • Width                                    : 1 438 pixels
  • Height                                   : 1 080 pixels
  • Display aspect ratio                     : 4:3
  • Frame rate mode                          : Constant
  • Frame rate                               : 23.976 (24000/1001) FPS
  • Color space                              : YUV
  • Chroma subsampling                       : 4:2:0
  • Bit depth                                : 8 bits
  • Scan type                                : Progressive
  • Bits/(Pixel*Frame)                       : 0.314
  • Stream size                              : 9.56 GiB (98%)
  • Writing library                          : x264 core 157 r2935 545de2f
  • Encoding settings                        : cabac=1 / ref=5 / deblock=1:-3:-3 / analyse=0x3:0x133 / me=umh / subme=10 / psy=1 / psy_rd=1.00:0.00 / mixed_ref=1 / me_range=32 / chroma_me=1 / trellis=2 / 8x8dct=1 / cqm=0 / deadzone=21,11 / fast_pskip=0 / chroma_qp_offset=-2 / threads=24 / lookahead_threads=6 / sliced_threads=0 / nr=0 / decimate=0 / interlaced=0 / bluray_compat=0 / constrained_intra=0 / bframes=16 / b_pyramid=2 / b_adapt=2 / b_bias=0 / direct=3 / weightb=1 / open_gop=0 / weightp=2 / keyint=240 / keyint_min=24 / scenecut=40 / intra_refresh=0 / rc_lookahead=60 / rc=crf / mbtree=0 / crf=20.8 / qcomp=0.60 / qpmin=0 / qpmax=69 / qpstep=4 / vbv_maxrate=62500 / vbv_bufsize=78125 / crf_max=0.0 / nal_hrd=none / filler=0 / ip_ratio=1.40 / pb_ratio=1.30 / aq=2:1.00
  • Language                                 : English
  • Default                                  : Yes
  • Forced                                   : No
  • Color range                              : Limited
  • Color primaries                          : BT.709
  • Transfer characteristics                 : BT.709
  • Matrix coefficients                      : BT.709
  • Audio
  • ID                                       : 2
  • Format                                   : AC-3
  • Format/Info                              : Audio Coding 3
  • Commercial name                          : Dolby Digital
  • Codec ID                                 : A_AC3
  • Duration                                 : 1 h 57 min
  • Bit rate mode                            : Constant
  • Bit rate                                 : 256 kb/s
  • Channel(s)                               : 2 channels
  • Channel layout                           : L R
  • Sampling rate                            : 48.0 kHz
  • Frame rate                               : 31.250 FPS (1536 SPF)
  • Compression mode                         : Lossy
  • Stream size                              : 214 MiB (2%)
  • Language                                 : English
  • Service kind                             : Complete Main
  • Default                                  : Yes
  • Forced                                   : No
  • Text #1
  • ID                                       : 3
  • Format                                   : UTF-8
  • Codec ID                                 : S_TEXT/UTF8
  • Codec ID/Info                            : UTF-8 Plain Text
  • Duration                                 : 1 h 55 min
  • Bit rate                                 : 93 b/s
  • Count of elements                        : 1740
  • Stream size                              : 78.9 KiB (0%)
  • Language                                 : English
  • Default                                  : No
  • Forced                                   : No
  • Text #2
  • ID                                       : 4
  • Format                                   : UTF-8
  • Codec ID                                 : S_TEXT/UTF8
  • Codec ID/Info                            : UTF-8 Plain Text
  • Duration                                 : 1 h 55 min
  • Bit rate                                 : 96 b/s
  • Count of elements                        : 1798
  • Stream size                              : 81.5 KiB (0%)
  • Language                                 : English
  • Default                                  : No
  • Forced                                   : No
  • Menu
  • 00:00:00.083                             : :Opening
  • 00:05:56.439                             : :The McDonald Observatory
  • 00:13:15.878                             : :Bending Light Experiment
  • 00:20:58.841                             : :Warped Space and Bent Light
  • 00:27:01.703                             : :The Doppler Effect
  • 00:35:42.223                             : :The Moon Laser
  • 00:45:05.786                             : :Measuring the Speed of Light
  • 00:56:51.491                             : :Atoms & Energy of Motion
  • 01:06:32.071                             : :Space Time
  • 01:19:03.822                             : :Light Speed
  • 01:29:47.465                             : :Letter to Roosevelt
  • 01:40:20.097                             : :Imaginary Collision of Black Holes
  • 01:46:10.447                             : :Collision of Galaxies
  • 01:54:32.449                             : :Toast to Einstein
  • 01:56:05.041                             : :End Credits

复制代码



20190801120031.jpg

20190801120031.jpg

20190801120031.jpg


4K321提示您  点击下方附件名称  马上开始下载

爱因斯坦的宇宙 Einsteins.Universe.1979.1080p.BluRay.x264-HANDJOB 9.77GB

Einsteins.Universe.1979.1080p.BluRay.x264-HANDJOB.torrent ( 49.39 KB )




               
回复

使用道具 举报

全部回复0 显示全部楼层

声明:您在社区发表的所有信息仅代表用户个人观点,与本网站立场无关,希望各位烧友理性发言,不发表违法国家法律禁止的话题。

您需要登录后才可以回帖 登录 | 立即注册

本版积分规则

联系客服 关注微信 下载APP 返回顶部 返回列表