开启左侧

[其它] 忠贞/忠诚 Vernost.2019.RUSSIAN.1080p.BluRay.x264-HANDJOB 6.55GB

蓝鸟 发表于 2021-1-12 19:31:53 | 显示全部楼层 |阅读模式
20190801120031.jpg



20190801120031.jpg


译  名 忠贞 / The Fidelity / Vernost / 忠诚 / 饥俄人妻(港 / 台)
片  名 Верность
年  代 2019
产  地 俄罗斯
类  别 情色
语  言 俄语
上映日期 2019-10-31(俄罗斯)
IMDb评分  6.0/10 from 1140 users
IMDb链接  https://www.imdb.com/title/tt10516086
豆瓣评分 6.2/10 from 3527 users
豆瓣链接 https://movie.douban.com/subject/34875261/
片  长 82分钟
导  演 尼吉娜·赛福莱娃 Nigina Sayfullaeva
编  剧 尼吉娜·赛福莱娃 Nigina Sayfullaeva / 卢博夫·慕尔门科 Lyubov Mulmenko
主  演 叶夫根尼娅·格罗莫娃 Evgeniya Gromova
       亚历山大·帕里 Aleksandr Pal
       安娜·科托瓦 Anna Kotova

标  签 情色 | 俄罗斯 | 女性 | 爱情 | 电影 | 人性 | 剧情 | 2019
简  介  
  莉娜是一位才华横溢的妇产科医生,她的丈夫谢尔盖是一家省级剧院的演员。他们的关系温柔而亲密,但完全没有性。莉娜怀疑谢尔盖有外遇,但她默默忍受,没有让她的嫉妒表现出来。莉娜开始和一些随机的男人发生外遇,她的不忠行为最终失控并改变了她的真实生活。


该资源信息参数
  • Video
  • ID                                       : 1
  • Format                                   : AVC
  • Format/Info                              : Advanced Video Codec
  • Format profile                           : High@L4.1
  • Format settings                          : CABAC / 5 Ref Frames
  • Format settings, CABAC                   : Yes
  • Format settings, Reference frames        : 5 frames
  • Codec ID                                 : V_MPEG4/ISO/AVC
  • Duration                                 : 1 h 21 min
  • Bit rate                                 : 10.8 Mb/s
  • Width                                    : 1 920 pixels
  • Height                                   : 800 pixels
  • Display aspect ratio                     : 2.40:1
  • Frame rate mode                          : Constant
  • Frame rate                               : 24.000 FPS
  • Color space                              : YUV
  • Chroma subsampling                       : 4:2:0
  • Bit depth                                : 8 bits
  • Scan type                                : Progressive
  • Bits/(Pixel*Frame)                       : 0.293
  • Stream size                              : 6.17 GiB (94%)
  • Writing library                          : x264 core 157 r2935 545de2f
  • Encoding settings                        : cabac=1 / ref=5 / deblock=1:-3:-3 / analyse=0x3:0x133 / me=umh / subme=10 / psy=1 / psy_rd=1.00:0.00 / mixed_ref=1 / me_range=32 / chroma_me=1 / trellis=2 / 8x8dct=1 / cqm=0 / deadzone=21,11 / fast_pskip=0 / chroma_qp_offset=-2 / threads=18 / lookahead_threads=4 / sliced_threads=0 / nr=0 / decimate=0 / interlaced=0 / bluray_compat=0 / constrained_intra=0 / bframes=16 / b_pyramid=2 / b_adapt=2 / b_bias=0 / direct=3 / weightb=1 / open_gop=0 / weightp=2 / keyint=240 / keyint_min=24 / scenecut=40 / intra_refresh=0 / rc_lookahead=60 / rc=crf / mbtree=0 / crf=18.0 / qcomp=0.60 / qpmin=0 / qpmax=69 / qpstep=4 / vbv_maxrate=62500 / vbv_bufsize=78125 / crf_max=0.0 / nal_hrd=none / filler=0 / ip_ratio=1.40 / pb_ratio=1.30 / aq=2:1.00
  • Default                                  : Yes
  • Forced                                   : No
  • Color range                              : Limited
  • Color primaries                          : BT.709
  • Transfer characteristics                 : BT.709
  • Matrix coefficients                      : BT.709
  • Audio
  • ID                                       : 2
  • Format                                   : AC-3
  • Format/Info                              : Audio Coding 3
  • Commercial name                          : Dolby Digital
  • Codec ID                                 : A_AC3
  • Duration                                 : 1 h 21 min
  • Bit rate mode                            : Constant
  • Bit rate                                 : 640 kb/s
  • Channel(s)                               : 6 channels
  • Channel layout                           : L R C LFE Ls Rs
  • Sampling rate                            : 48.0 kHz
  • Frame rate                               : 31.250 FPS (1536 SPF)
  • Compression mode                         : Lossy
  • Stream size                              : 374 MiB (6%)
  • Language                                 : Russian
  • Service kind                             : Complete Main
  • Default                                  : Yes
  • Forced                                   : No
  • Text #1
  • ID                                       : 3
  • Format                                   : UTF-8
  • Codec ID                                 : S_TEXT/UTF8
  • Codec ID/Info                            : UTF-8 Plain Text
  • Duration                                 : 1 h 15 min
  • Bit rate                                 : 35 b/s
  • Count of elements                        : 694
  • Stream size                              : 19.8 KiB (0%)
  • Language                                 : English
  • Default                                  : Yes
  • Forced                                   : No
  • Text #2
  • ID                                       : 4
  • Format                                   : PGS
  • Muxing mode                              : zlib
  • Codec ID                                 : S_HDMV/PGS
  • Codec ID/Info                            : Picture based subtitle format used on BDs/HD-DVDs
  • Duration                                 : 1 h 15 min
  • Bit rate                                 : 24.9 kb/s
  • Count of elements                        : 1388
  • Stream size                              : 13.5 MiB (0%)
  • Language                                 : German
  • Default                                  : No
  • Forced                                   : No
  • Menu
  • 00:00:00.000                             : :Chapter 1
  • 00:02:59.875                             : :Chapter 2
  • 00:08:27.583                             : :Chapter 3
  • 00:13:29.042                             : :Chapter 4
  • 00:19:43.167                             : :Chapter 5
  • 00:24:43.917                             : :Chapter 6
  • 00:29:47.167                             : :Chapter 7
  • 00:36:36.375                             : :Chapter 8
  • 00:42:06.875                             : :Chapter 9
  • 00:47:30.083                             : :Chapter 10
  • 00:52:24.042                             : :Chapter 11
  • 00:57:09.750                             : :Chapter 12
  • 01:02:25.500                             : :Chapter 13
  • 01:05:27.667                             : :Chapter 14
  • 01:12:57.708                             : :Chapter 15
  • 01:18:21.375                             : :Chapter 16

复制代码



20190801120031.jpg

20190801120031.jpg

20190801120031.jpg


4K321提示您  点击下方附件名称  马上开始下载

忠贞/忠诚 Vernost.2019.RUSSIAN.1080p.BluRay.x264-HANDJOB 6.55GB

Vernost.2019.RUSSIAN.1080p.BluRay.x264-HANDJOB.torrent ( 33.24 KB )




               
回复

使用道具 举报

全部回复0 显示全部楼层

声明:您在社区发表的所有信息仅代表用户个人观点,与本网站立场无关,希望各位烧友理性发言,不发表违法国家法律禁止的话题。

您需要登录后才可以回帖 登录 | 立即注册

本版积分规则

联系客服 关注微信 下载APP 返回顶部 返回列表