开启左侧

[悬疑] 鬼来电/电话来了 One.Missed.Call.2003.JAPANESE.1080p.BluRay.x264.DTS-WMD 10.86GB

蓝鸟 发表于 2021-1-12 19:21:40 | 显示全部楼层 |阅读模式
20190801120031.jpg


译  名 鬼来电 / Chakushin ari / One Missed Call / 电话来了
片  名 着信アリ
年  代 2003
产  地 日本
类  别 悬疑 / 恐怖
语  言 日语 / 英语
上映日期 2003-11-03(多伦多电影节) / 2004-01-17(日本)
IMDb评分  6.2/10 from 16317 users
IMDb链接  https://www.imdb.com/title/tt0366292
豆瓣评分 6.9/10 from 26866 users
豆瓣链接 https://movie.douban.com/subject/1455849/
片  长 112分钟
导  演 三池崇史 Takashi Miike
编  剧 秋元康 Yasushi Akimoto / 大良美波子 Minako Daira
主  演 柴崎幸 Kou Shibasaki
       堤真一 Shin"ichi Tsutsumi
       吹石一惠 Kazue Fukiishi
       岸谷五朗 Gor? Kishitani
       永田杏奈 Anna Nagata
       井田篤
       松重丰 Yutaka Matsushige
       筒井真理子 Mariko Tsutsui
       藤井佳代子 Fujii Kayoko
       梓 Azusa
       田中哲司 Tetsushi Tanaka
       高野八诚 Hassei Takano
       饭岛大介 Daisuke Iijima
       阿部进之介 Shinnosuke Abe
       江口德子 Noriko Eguchi
       纱荣子 Saeko
       中山英玲奈 Erena
       伊藤加奈 Kana Ito
       中村靖日 Yasuhi Nakamura
       远藤宪一 Ken"ichi End?
       石桥莲司 Renji Ishibashi
       芭芭拉·古德森 Barbara Goodson
       道格·斯通 Doug Stone
       斯蒂芬妮·社 Stephanie Sheh
       凯特·希金斯 Kate Higgins
       连姆·奥布赖恩 Liam O"Brien
       凯伦·斯特拉斯曼 Karen Strassman
       迈克尔·麦康诺希 Michael McConnohie
       萨姆·里格尔 Sam Riegel
       Steve Staley
       小澤真利奈 Marina Kozawa

标  签 恐怖 | 日本 | 鬼来电 | 日本电影 | 惊悚 | 三池崇史 | 恐怖片 | 柴崎幸
简  介  
  手机里传来陌生的铃声,呼叫人竟是自己的名字,另一端传来不知所谓的留言内容,但那毫无疑问的是自己的声音,这是怎么回事?
  “鬼来电”悄悄在高校学生中蔓延开来,一旦接到鬼来电,必然在电话所预言的时间内悲惨死去。由美(柴咲コウ饰)的好友阳子、研二、夏美先后惨死,由美有心挽救好友们的生命,却爱莫能助。
  山下(堤真一饰)的妹妹早先亦死于这通电话,他企图帮助由美一起企图揭开真相,可很快,由美也收到了鬼来电……


该资源信息参数
  • Video
  • ID                                       : 1
  • Format                                   : AVC
  • Format/Info                              : Advanced Video Codec
  • Format profile                           : High@L4.1
  • Format settings                          : CABAC / 4 Ref Frames
  • Format settings, CABAC                   : Yes
  • Format settings, Reference frames        : 4 frames
  • Codec ID                                 : V_MPEG4/ISO/AVC
  • Duration                                 : 1 h 54 min
  • Bit rate                                 : 12.0 Mb/s
  • Width                                    : 1 920 pixels
  • Height                                   : 1 036 pixels
  • Display aspect ratio                     : 1.85:1
  • Frame rate mode                          : Constant
  • Frame rate                               : 23.976 (24000/1001) FPS
  • Color space                              : YUV
  • Chroma subsampling                       : 4:2:0
  • Bit depth                                : 8 bits
  • Scan type                                : Progressive
  • Bits/(Pixel*Frame)                       : 0.251
  • Stream size                              : 9.59 GiB (88%)
  • Title                                    : One.Missed.Call.2003.1080p.BluRay.DTS.x264-WMD
  • Writing library                          : x264 core 160 r3009 4c9b076
  • Encoding settings                        : cabac=1 / ref=4 / deblock=1:-3:-3 / analyse=0x3:0x133 / me=umh / subme=10 / psy=1 / psy_rd=1.00:0.00 / mixed_ref=1 / me_range=32 / chroma_me=1 / trellis=2 / 8x8dct=1 / cqm=0 / deadzone=21,11 / fast_pskip=0 / chroma_qp_offset=-2 / threads=12 / lookahead_threads=2 / sliced_threads=0 / nr=0 / decimate=0 / interlaced=0 / bluray_compat=0 / constrained_intra=0 / bframes=7 / b_pyramid=2 / b_adapt=2 / b_bias=0 / direct=3 / weightb=1 / open_gop=0 / weightp=2 / keyint=250 / keyint_min=23 / scenecut=40 / intra_refresh=0 / rc=crf / mbtree=0 / crf=19.2 / qcomp=0.65 / qpmin=0 / qpmax=69 / qpstep=4 / ip_ratio=1.40 / pb_ratio=1.30 / aq=2:1.00
  • Language                                 : Japanese
  • Default                                  : Yes
  • Forced                                   : No
  • Audio #1
  • ID                                       : 2
  • Format                                   : DTS
  • Format/Info                              : Digital Theater Systems
  • Codec ID                                 : A_DTS
  • Duration                                 : 1 h 54 min
  • Bit rate mode                            : Constant
  • Bit rate                                 : 1 509 kb/s
  • Channel(s)                               : 6 channels
  • Channel layout                           : C L R Ls Rs LFE
  • Sampling rate                            : 48.0 kHz
  • Frame rate                               : 93.750 FPS (512 SPF)
  • Bit depth                                : 24 bits
  • Compression mode                         : Lossy
  • Stream size                              : 1.21 GiB (11%)
  • Language                                 : Japanese
  • Default                                  : Yes
  • Forced                                   : No
  • Audio #2
  • ID                                       : 3
  • Format                                   : AAC LC
  • Format/Info                              : Advanced Audio Codec Low Complexity
  • Codec ID                                 : A_AAC-2
  • Duration                                 : 1 h 54 min
  • Bit rate                                 : 77.4 kb/s
  • Channel(s)                               : 2 channels
  • Channel layout                           : L R
  • Sampling rate                            : 48.0 kHz
  • Frame rate                               : 46.875 FPS (1024 SPF)
  • Compression mode                         : Lossy
  • Stream size                              : 63.4 MiB (1%)
  • Title                                    : Commentary by Miike biographer Tom Mes
  • Language                                 : English
  • Default                                  : No
  • Forced                                   : No
  • Text #1
  • ID                                       : 4
  • Format                                   : UTF-8
  • Codec ID                                 : S_TEXT/UTF8
  • Codec ID/Info                            : UTF-8 Plain Text
  • Duration                                 : 1 h 51 min
  • Bit rate                                 : 20 b/s
  • Count of elements                        : 678
  • Stream size                              : 16.6 KiB (0%)
  • Title                                    : SRT
  • Language                                 : English
  • Default                                  : Yes
  • Forced                                   : No
  • Text #2
  • ID                                       : 5
  • Format                                   : PGS
  • Muxing mode                              : zlib
  • Codec ID                                 : S_HDMV/PGS
  • Codec ID/Info                            : Picture based subtitle format used on BDs/HD-DVDs
  • Duration                                 : 1 h 51 min
  • Bit rate                                 : 12.3 kb/s
  • Count of elements                        : 1364
  • Stream size                              : 9.85 MiB (0%)
  • Language                                 : English
  • Default                                  : No
  • Forced                                   : No
  • Text #3
  • ID                                       : 6
  • Format                                   : UTF-8
  • Codec ID                                 : S_TEXT/UTF8
  • Codec ID/Info                            : UTF-8 Plain Text
  • Duration                                 : 1 h 51 min
  • Bit rate                                 : 39 b/s
  • Count of elements                        : 1078
  • Stream size                              : 32.3 KiB (0%)
  • Language                                 : Vietnamese
  • Default                                  : No
  • Forced                                   : No
  • Menu
  • 00:00:00.000                             : en:Chapter 01
  • 00:09:51.257                             : en:Chapter 02
  • 00:17:52.697                             : en:Chapter 03
  • 00:27:00.285                             : en:Chapter 04
  • 00:40:11.909                             : en:Chapter 05
  • 00:46:35.918                             : en:Chapter 06
  • 00:57:59.142                             : en:Chapter 07
  • 01:03:42.277                             : en:Chapter 08
  • 01:13:34.952                             : en:Chapter 09
  • 01:23:10.777                             : en:Chapter 10
  • 01:34:07.809                             : en:Chapter 11
  • 01:40:12.632                             : en:Chapter 12

复制代码



20190801120031.jpg

20190801120031.jpg

20190801120031.jpg


4K321提示您  点击下方附件名称  马上开始下载

鬼来电/电话来了 One.Missed.Call.2003.JAPANESE.1080p.BluRay.x264.DTS-WMD 10.86GB

One.Missed.Call.2003.JAPANESE.1080p.BluRay.x264.DTS-WMD.torrent ( 54.85 KB )




               
回复

使用道具 举报

全部回复1 显示全部楼层
yuzhong000 发表于 2021-1-30 11:36:54 | 显示全部楼层
无限制下载本站所有资源-
回复 支持 反对

使用道具 举报

声明:您在社区发表的所有信息仅代表用户个人观点,与本网站立场无关,希望各位烧友理性发言,不发表违法国家法律禁止的话题。

您需要登录后才可以回帖 登录 | 立即注册

本版积分规则

联系客服 关注微信 下载APP 返回顶部 返回列表