开启左侧

[喜剧] 一切徒手2 Lommbock.2017.GERMAN.1080p.BluRay.x264-HANDJOB 9.69GB

蓝鸟 发表于 2021-1-12 19:12:53 | 显示全部楼层 |阅读模式
20190801120031.jpg


译  名 一切徒手2 / Lammbock 2
片  名 Lommbock
年  代 2017
产  地 德国
类  别 喜剧
语  言 德语
上映日期 2017-03-23
IMDb评分  6.7/10 from 3177 users
IMDb链接  https://www.imdb.com/title/tt5075584
豆瓣评分 0/10 from 0 users
豆瓣链接 https://movie.douban.com/subject/26824018/
片  长 91分钟
主  演 莫里兹·布雷多 Moritz Bleibtreu
       卢卡斯·格雷戈霍威茨 Lucas Gregorowicz
       路易斯·霍夫曼 Louis Hofmann
       朱利斯·尼兹舒寇夫 Julius Nitschkoff

标  签 德国 | 喜剧 | 电影 | 德国电影 | 霍夫曼 | 德语 | LouisHofmann | ge
简  介  
  暂无相关剧情介绍


该资源信息参数
  • Video
  • ID                                       : 1
  • Format                                   : AVC
  • Format/Info                              : Advanced Video Codec
  • Format profile                           : High@L4.1
  • Format settings                          : CABAC / 5 Ref Frames
  • Format settings, CABAC                   : Yes
  • Format settings, Reference frames        : 5 frames
  • Codec ID                                 : V_MPEG4/ISO/AVC
  • Duration                                 : 1 h 46 min
  • Bit rate                                 : 12.4 Mb/s
  • Width                                    : 1 920 pixels
  • Height                                   : 800 pixels
  • Display aspect ratio                     : 2.40:1
  • Frame rate mode                          : Constant
  • Frame rate                               : 24.000 FPS
  • Color space                              : YUV
  • Chroma subsampling                       : 4:2:0
  • Bit depth                                : 8 bits
  • Scan type                                : Progressive
  • Bits/(Pixel*Frame)                       : 0.337
  • Stream size                              : 9.21 GiB (95%)
  • Writing library                          : x264 core 155 r2917 0a84d98
  • Encoding settings                        : cabac=1 / ref=5 / deblock=1:-3:-3 / analyse=0x3:0x133 / me=umh / subme=10 / psy=1 / psy_rd=1.00:0.00 / mixed_ref=1 / me_range=32 / chroma_me=1 / trellis=2 / 8x8dct=1 / cqm=0 / deadzone=21,11 / fast_pskip=0 / chroma_qp_offset=-2 / threads=25 / lookahead_threads=6 / sliced_threads=0 / nr=0 / decimate=0 / interlaced=0 / bluray_compat=0 / constrained_intra=0 / bframes=16 / b_pyramid=2 / b_adapt=2 / b_bias=0 / direct=3 / weightb=1 / open_gop=0 / weightp=1 / keyint=240 / keyint_min=24 / scenecut=40 / intra_refresh=0 / rc_lookahead=60 / rc=crf / mbtree=0 / crf=15.0 / qcomp=0.60 / qpmin=0 / qpmax=69 / qpstep=4 / vbv_maxrate=62500 / vbv_bufsize=78125 / crf_max=0.0 / nal_hrd=none / filler=0 / ip_ratio=1.40 / pb_ratio=1.30 / aq=1:0.70
  • Default                                  : Yes
  • Forced                                   : No
  • Color range                              : Limited
  • Color primaries                          : BT.709
  • Transfer characteristics                 : BT.709
  • Matrix coefficients                      : BT.709
  • Audio
  • ID                                       : 2
  • Format                                   : AC-3
  • Format/Info                              : Audio Coding 3
  • Commercial name                          : Dolby Digital
  • Codec ID                                 : A_AC3
  • Duration                                 : 1 h 46 min
  • Bit rate mode                            : Constant
  • Bit rate                                 : 640 kb/s
  • Channel(s)                               : 6 channels
  • Channel layout                           : L R C LFE Ls Rs
  • Sampling rate                            : 48.0 kHz
  • Frame rate                               : 31.250 FPS (1536 SPF)
  • Compression mode                         : Lossy
  • Stream size                              : 486 MiB (5%)
  • Language                                 : German
  • Service kind                             : Complete Main
  • Default                                  : Yes
  • Forced                                   : No
  • Text #1
  • ID                                       : 3
  • Format                                   : UTF-8
  • Codec ID                                 : S_TEXT/UTF8
  • Codec ID/Info                            : UTF-8 Plain Text
  • Duration                                 : 1 h 38 min
  • Bit rate                                 : 66 b/s
  • Count of elements                        : 1419
  • Stream size                              : 48.1 KiB (0%)
  • Language                                 : English
  • Default                                  : Yes
  • Forced                                   : No
  • Text #2
  • ID                                       : 4
  • Format                                   : UTF-8
  • Codec ID                                 : S_TEXT/UTF8
  • Codec ID/Info                            : UTF-8 Plain Text
  • Duration                                 : 1 h 40 min
  • Bit rate                                 : 74 b/s
  • Count of elements                        : 1572
  • Stream size                              : 55.3 KiB (0%)
  • Language                                 : German
  • Default                                  : No
  • Forced                                   : No
  • Menu
  • 00:00:00.000                             : :00:00:00.000
  • 00:10:35.167                             : :00:10:35.167
  • 00:19:02.833                             : :00:19:02.833
  • 00:29:05.833                             : :00:29:05.833
  • 00:37:41.625                             : :00:37:41.625
  • 00:47:10.542                             : :00:47:10.542
  • 00:58:38.042                             : :00:58:38.042
  • 01:08:24.500                             : :01:08:24.500
  • 01:21:47.167                             : :01:21:47.167
  • 01:31:19.833                             : :01:31:19.833
  • 01:41:11.125                             : :01:41:11.125

复制代码



20190801120031.jpg

20190801120031.jpg

20190801120031.jpg


4K321提示您  点击下方附件名称  马上开始下载

一切徒手2 Lommbock.2017.GERMAN.1080p.BluRay.x264-HANDJOB 9.69GB

Lommbock.2017.GERMAN.1080p.BluRay.x264-HANDJOB.torrent ( 48.94 KB )




               
回复

使用道具 举报

全部回复0 显示全部楼层

声明:您在社区发表的所有信息仅代表用户个人观点,与本网站立场无关,希望各位烧友理性发言,不发表违法国家法律禁止的话题。

您需要登录后才可以回帖 登录 | 立即注册

本版积分规则

联系客服 关注微信 下载APP 返回顶部 返回列表