开启左侧

[剧情] 然后我们跳了舞/以你的舞步撩动我 And.Then.We.Danced.2019.GEORGIAN.1080p.BluRay.x264.DTS-PTH 13.8

蓝鸟 发表于 2021-1-12 18:45:34 | 显示全部楼层 |阅读模式
20190801120031.jpg


译  名 然后我们跳了舞 / And Then We Danced / 以你的舞步撩动我(港)
片  名 ?? ???? ????????
年  代 2019
产  地 瑞典 / 格鲁吉亚 / 法国
类  别 剧情 / 同性
语  言 格鲁吉亚语
上映日期 2019-05-16(戛纳电影节) / 2019-08-18(中国香港夏日国际电影节) / 2019-09-13(瑞典)
IMDb评分  7.8/10 from 8006 users
IMDb链接  https://www.imdb.com/title/tt8963708
豆瓣评分 7.9/10 from 7265 users
豆瓣链接 https://movie.douban.com/subject/30394484/
片  长 113分钟
导  演 列万·阿金 Levan Akin
编  剧 列万·阿金 Levan Akin
主  演 列文·格尔巴赫亚尼 ????? ??????????
       巴奇·瓦利什维利 ???? ?????????
       安娜·贾瓦基什维利 Ana Javakishvili
       格奥尔基·采列捷利 Giorgi Tsereteli
       塔马尔·布赫尼卡什维利 Tamar Bukhnikashvili
       玛丽卡·戈吉查什维利 Marika Gogichaishvili
       卡卡·戈吉泽 Kakha Gogidze
       莱万·加布拉瓦 Levan Gabrava
       安娜·马克哈泽 Ana Makharadze
       尼诺·加比索尼亚 Nino Gabisonia
       马特·基沙德利 Mate Khidasheli
       阿莱科·贝加里什维利 Aleko Begalishvili
       沙巴·阿巴希泽 Saba Abashidze
       索索·阿布拉米什维利 Soso Abramishvili
       戴维特·阿布拉泽 Davit Abuladze

标  签 同性 | 格鲁吉亚 | 舞蹈 | 爱情 | 瑞典 | 2019 | 剧情 | 戛纳电影节
简  介  
  梅拉布从小就在格鲁吉亚国家舞团与他的舞伴玛丽一起训练。当富有魅力、无忧无虑的伊拉克利到来后,他不仅遇到了最强大的对手,也触发了内心的欲望,世界就这样突然颠倒。可在这种保守的环境中,梅拉布发现自己必须挣脱束缚寻求冒险。
获奖情况  
  第72届戛纳电影节(2019)
  导演双周单元(提名) 列万·阿金
  同志金棕榈奖(提名) 列万·阿金
  第32届欧洲电影奖(2019)
  最佳男主角(提名) 列文·格尔巴赫亚尼


该资源信息参数
  • Video
  • ID                                       : 1
  • Format                                   : AVC
  • Format/Info                              : Advanced Video Codec
  • Format profile                           : High@L4.1
  • Format settings                          : CABAC / 4 Ref Frames
  • Format settings, CABAC                   : Yes
  • Format settings, Reference frames        : 4 frames
  • Codec ID                                 : V_MPEG4/ISO/AVC
  • Duration                                 : 1 h 53 min
  • Bit rate                                 : 16.1 Mb/s
  • Width                                    : 1 920 pixels
  • Height                                   : 1 080 pixels
  • Display aspect ratio                     : 16:9
  • Frame rate mode                          : Constant
  • Frame rate                               : 23.976 (24000/1001) FPS
  • Color space                              : YUV
  • Chroma subsampling                       : 4:2:0
  • Bit depth                                : 8 bits
  • Scan type                                : Progressive
  • Bits/(Pixel*Frame)                       : 0.323
  • Stream size                              : 12.7 GiB (91%)
  • Writing library                          : x264 core 161 r3018+53 18a1d6c t_mod_New [(8 & 10)-bit@all X86_64]
  • Encoding settings                        : cabac=1 / ref=4 / deblock=1:-3:-3 / analyse=0x3:0x133 / me=umh / subme=11 / psy=1 / fade_compensate=0.00 / psy_rd=1.00:0.00 / mixed_ref=1 / me_range=48 / chroma_me=1 / trellis=2 / 8x8dct=1 / cqm=0 / deadzone=21,11 / fast_pskip=0 / chroma_qp_offset=-3 / threads=9 / lookahead_threads=2 / sliced_threads=0 / nr=0 / decimate=0 / interlaced=0 / bluray_compat=0 / constrained_intra=0 / fgo=0 / bframes=11 / b_pyramid=2 / b_adapt=2 / b_bias=0 / direct=3 / weightb=1 / open_gop=0 / weightp=2 / keyint=240 / keyint_min=1 / scenecut=40 / intra_refresh=0 / rc_lookahead=72 / rc=crf / mbtree=0 / crf=19.0000 / qcomp=0.65 / qpmin=0:0:0 / qpmax=69:69:69 / qpstep=4 / vbv_maxrate=62500 / vbv_bufsize=78125 / crf_max=0.0 / nal_hrd=none / filler=0 / ip_ratio=1.40 / pb_ratio=1.30 / aq=3:0.70 / aq-sensitivity=10.00 / aq-factor=1.00:1.00:1.00 / aq2=0 / aq3=0
  • Default                                  : Yes
  • Forced                                   : No
  • Audio
  • ID                                       : 2
  • Format                                   : DTS
  • Format/Info                              : Digital Theater Systems
  • Codec ID                                 : A_DTS
  • Duration                                 : 1 h 53 min
  • Bit rate mode                            : Constant
  • Bit rate                                 : 1 509 kb/s
  • Channel(s)                               : 2 channels
  • Channel layout                           : L R
  • Sampling rate                            : 48.0 kHz
  • Frame rate                               : 93.750 FPS (512 SPF)
  • Bit depth                                : 24 bits
  • Compression mode                         : Lossy
  • Stream size                              : 1.19 GiB (9%)
  • Language                                 : English
  • Default                                  : Yes
  • Forced                                   : No
  • Text #1
  • ID                                       : 3
  • Format                                   : UTF-8
  • Codec ID                                 : S_TEXT/UTF8
  • Codec ID/Info                            : UTF-8 Plain Text
  • Duration                                 : 1 h 45 min
  • Bit rate                                 : 30 b/s
  • Count of elements                        : 1057
  • Stream size                              : 23.9 KiB (0%)
  • Title                                    : SRT
  • Language                                 : English
  • Default                                  : Yes
  • Forced                                   : No
  • Text #2
  • ID                                       : 4
  • Format                                   : ASS
  • Codec ID                                 : S_TEXT/ASS
  • Codec ID/Info                            : Advanced Sub Station Alpha
  • Duration                                 : 1 h 45 min
  • Bit rate                                 : 98 b/s
  • Count of elements                        : 1057
  • Compression mode                         : Lossless
  • Stream size                              : 76.4 KiB (0%)
  • Title                                    : chs&eng
  • Language                                 : Chinese
  • Default                                  : No
  • Forced                                   : No
  • Text #3
  • ID                                       : 5
  • Format                                   : ASS
  • Codec ID                                 : S_TEXT/ASS
  • Codec ID/Info                            : Advanced Sub Station Alpha
  • Duration                                 : 1 h 45 min
  • Bit rate                                 : 98 b/s
  • Count of elements                        : 1057
  • Compression mode                         : Lossless
  • Stream size                              : 76.4 KiB (0%)
  • Title                                    : cht&eng
  • Language                                 : Chinese
  • Default                                  : No
  • Forced                                   : No
  • Text #4
  • ID                                       : 6
  • Format                                   : ASS
  • Codec ID                                 : S_TEXT/ASS
  • Codec ID/Info                            : Advanced Sub Station Alpha
  • Duration                                 : 1 h 45 min
  • Bit rate                                 : 56 b/s
  • Count of elements                        : 1057
  • Compression mode                         : Lossless
  • Stream size                              : 43.8 KiB (0%)
  • Title                                    : chs
  • Language                                 : Chinese
  • Default                                  : No
  • Forced                                   : No
  • Text #5
  • ID                                       : 7
  • Format                                   : ASS
  • Codec ID                                 : S_TEXT/ASS
  • Codec ID/Info                            : Advanced Sub Station Alpha
  • Duration                                 : 1 h 45 min
  • Bit rate                                 : 56 b/s
  • Count of elements                        : 1057
  • Compression mode                         : Lossless
  • Stream size                              : 43.8 KiB (0%)
  • Title                                    : cht
  • Language                                 : Chinese
  • Default                                  : No
  • Forced                                   : No
  • Text #6
  • ID                                       : 8
  • Format                                   : ASS
  • Codec ID                                 : S_TEXT/ASS
  • Codec ID/Info                            : Advanced Sub Station Alpha
  • Duration                                 : 1 h 45 min
  • Bit rate                                 : 60 b/s
  • Count of elements                        : 1057
  • Compression mode                         : Lossless
  • Stream size                              : 46.5 KiB (0%)
  • Language                                 : English
  • Default                                  : No
  • Forced                                   : No
  • Menu
  • 00:00:00.000                             : en:Chapter 01
  • 00:08:38.518                             : en:Chapter 02
  • 00:18:09.171                             : en:Chapter 03
  • 00:27:19.429                             : en:Chapter 04
  • 00:36:16.883                             : en:Chapter 05
  • 00:44:40.803                             : en:Chapter 06
  • 00:53:42.511                             : en:Chapter 07
  • 01:01:08.999                             : en:Chapter 08
  • 01:09:15.610                             : en:Chapter 09
  • 01:15:58.554                             : en:Chapter 10
  • 01:26:11.833                             : en:Chapter 11
  • 01:35:22.050                             : en:Chapter 12
  • 01:46:52.573                             : en:Chapter 13

复制代码



20190801120031.jpg

20190801120031.jpg

20190801120031.jpg


4K321提示您  点击下方附件名称  马上开始下载

然后我们跳了舞/以你的舞步撩动我 And.Then.We.Danced.2019.GEORGIAN.1080p.BluRay.x264.DTS-PTH 13.89GB

And.Then.We.Danced.2019.GEORGIAN.PROPER.1080p.BluRay.x264.DTS-PTH.torrent ( 69.98 KB )




               
回复

使用道具 举报

全部回复1 显示全部楼层
peterworld手机认证 发表于 2021-9-5 17:44:42 | 显示全部楼层
谢谢楼主分享
回复 支持 反对

使用道具 举报

声明:您在社区发表的所有信息仅代表用户个人观点,与本网站立场无关,希望各位烧友理性发言,不发表违法国家法律禁止的话题。

您需要登录后才可以回帖 登录 | 立即注册

本版积分规则

联系客服 关注微信 下载APP 返回顶部 返回列表