开启左侧

[剧情] 高山之王/飞车狂徒 King.of.the.Mountain.1981.1080p.BluRay.x264-HANDJOB 7.66GB

蓝鸟 发表于 2021-1-12 18:44:21 | 显示全部楼层 |阅读模式
20190801120031.jpg


译  名 高山之王/飞车狂徒
片  名 King of the Mountain
年  代 1981
产  地 美国,英国
类  别 剧情
语  言 英语
上映日期 1981
IMDb评分  5.6/10 from 338 users
IMDb链接  https://www.imdb.com/title/tt0082619/
豆瓣评分 /10 from 0 users
豆瓣链接 https://movie.douban.com/subject/5050945/
片  长 90 分钟
导  演 诺埃尔·诺萨克 Noel Nosseck
主  演 哈利·哈姆林 Harry Hamlin
       约瑟夫·伯特姆斯 Joseph Bottoms
       戴布拉·范·沃尔肯布劳 Deborah Van Valkenburgh
       理查德·考克斯 Richard Cox
       丹尼斯·霍珀 Dennis Hopper
       西摩·卡塞尔 Seymour Cassel
       Jay May
       特德·马克兰德 Ted Markland
       莉莉安·穆勒 Lillian Müller
       文森特·瓜斯塔费罗 Vincent Guastaferro
       查尔斯·A·坦伯罗 Charles A. Tamburro
       巴迪·乔·胡克 Buddy Joe Hooker
       Amy Gibson
       威廉·弗西斯 William Forsythe
       卡珊德拉·彼得逊 Cassandra Peterson
       Larry Beezer
       Ashley Cox
       Anthony De Longis
       John Dukakis
       李·加林顿 Lee Garlington
       丹·哈格蒂 Dan Haggerty
       比利·汉克·胡克 Billy Hank Hooker
       加里·哈德逊 Gary Hudson
标  签 被忽视的片子
简  介
  暂无相关剧情介绍


该资源信息参数
  • Video
  • ID                                       : 1
  • Format                                   : AVC
  • Format/Info                              : Advanced Video Codec
  • Format profile                           : High@L4.1
  • Format settings                          : CABAC / 4 Ref Frames
  • Format settings, CABAC                   : Yes
  • Format settings, Reference frames        : 4 frames
  • Codec ID                                 : V_MPEG4/ISO/AVC
  • Duration                                 : 1 h 30 min
  • Bit rate                                 : 11.9 Mb/s
  • Width                                    : 1 920 pixels
  • Height                                   : 1 034 pixels
  • Display aspect ratio                     : 1.85:1
  • Frame rate mode                          : Constant
  • Frame rate                               : 24.000 FPS
  • Color space                              : YUV
  • Chroma subsampling                       : 4:2:0
  • Bit depth                                : 8 bits
  • Scan type                                : Progressive
  • Bits/(Pixel*Frame)                       : 0.250
  • Stream size                              : 7.55 GiB (99%)
  • Writing library                          : x264 core 157 r2935 545de2f
  • Encoding settings                        : cabac=1 / ref=4 / deblock=1:-3:-3 / analyse=0x3:0x133 / me=umh / subme=10 / psy=1 / psy_rd=1.00:0.00 / mixed_ref=1 / me_range=32 / chroma_me=1 / trellis=2 / 8x8dct=1 / cqm=0 / deadzone=21,11 / fast_pskip=0 / chroma_qp_offset=-2 / threads=12 / lookahead_threads=3 / sliced_threads=0 / nr=0 / decimate=0 / interlaced=0 / bluray_compat=0 / constrained_intra=0 / bframes=16 / b_pyramid=2 / b_adapt=2 / b_bias=0 / direct=3 / weightb=1 / open_gop=0 / weightp=2 / keyint=240 / keyint_min=24 / scenecut=40 / intra_refresh=0 / rc_lookahead=60 / rc=crf / mbtree=0 / crf=21.5 / qcomp=0.60 / qpmin=0 / qpmax=69 / qpstep=4 / vbv_maxrate=62500 / vbv_bufsize=78125 / crf_max=0.0 / nal_hrd=none / filler=0 / ip_ratio=1.40 / pb_ratio=1.30 / aq=2:1.00
  • Default                                  : Yes
  • Forced                                   : No
  • Color range                              : Limited
  • Color primaries                          : BT.709
  • Transfer characteristics                 : BT.709
  • Matrix coefficients                      : BT.709
  • Audio
  • ID                                       : 2
  • Format                                   : AAC LC
  • Format/Info                              : Advanced Audio Codec Low Complexity
  • Codec ID                                 : A_AAC-2
  • Duration                                 : 1 h 30 min
  • Bit rate                                 : 173 kb/s
  • Channel(s)                               : 2 channels
  • Channel layout                           : L R
  • Sampling rate                            : 48.0 kHz
  • Frame rate                               : 46.875 FPS (1024 SPF)
  • Compression mode                         : Lossy
  • Stream size                              : 112 MiB (1%)
  • Language                                 : English
  • Default                                  : Yes
  • Forced                                   : No
  • Text
  • ID                                       : 3
  • Format                                   : UTF-8
  • Codec ID                                 : S_TEXT/UTF8
  • Codec ID/Info                            : UTF-8 Plain Text
  • Duration                                 : 1 h 29 min
  • Bit rate                                 : 51 b/s
  • Count of elements                        : 1206
  • Stream size                              : 33.6 KiB (0%)
  • Title                                    : SDH
  • Language                                 : English
  • Default                                  : No
  • Forced                                   : No
  • Menu
  • 00:00:00.000                             : en:Chapter 01
  • 00:04:45.958                             : en:Chapter 02
  • 00:10:30.417                             : en:Chapter 03
  • 00:15:02.917                             : en:Chapter 04
  • 00:23:58.542                             : en:Chapter 05
  • 00:32:09.583                             : en:Chapter 06
  • 00:40:19.500                             : en:Chapter 07
  • 00:49:51.292                             : en:Chapter 08
  • 00:58:47.292                             : en:Chapter 09
  • 01:04:20.375                             : en:Chapter 10
  • 01:13:55.583                             : en:Chapter 11
  • 01:21:41.500                             : en:Chapter 12

复制代码



20190801120031.jpg

20190801120031.jpg

20190801120031.jpg


4K321提示您  点击下方附件名称  马上开始下载

高山之王/飞车狂徒 King.of.the.Mountain.1981.1080p.BluRay.x264-HANDJOB 7.66GB

King.of.the.Mountain.1981.1080p.BluRay.x264-HANDJOB.torrent ( 38.83 KB )




               
回复

使用道具 举报

全部回复0 显示全部楼层

声明:您在社区发表的所有信息仅代表用户个人观点,与本网站立场无关,希望各位烧友理性发言,不发表违法国家法律禁止的话题。

您需要登录后才可以回帖 登录 | 立即注册

本版积分规则

联系客服 关注微信 下载APP 返回顶部 返回列表