开启左侧

[动作片] 勇士迷踪/军团的踪迹 The.Legion.2020.720p.BluRay.x264-JustWatch 2.03GB

蓝鸟 发表于 2021-1-12 18:07:39 | 显示全部楼层 |阅读模式
20190801120031.jpg



译  名 勇士迷踪 / The Legion / 军团的踪迹
片  名 Legionnaire"s Trail
年  代 2020
产  地 美国
类  别 动作 / 历史 / 冒险
语  言 英语
上映日期 2020-05-08(美国)
IMDb评分  3.1/10 from 421 users
IMDb链接  https://www.imdb.com/title/tt8318284
豆瓣评分 0/10 from 0 users
豆瓣链接 https://movie.douban.com/subject/34445270/
片  长 96分钟
导  演 何塞·马根 Jose Magan
编  剧 Alberto Vázquez Figueroa / 何塞·马根 Jose Magan
主  演 米基·洛克 Mickey Rourke
       白灵 Ling Bai
       弗拉基米尔库利奇 Vladimir Kulich
       乔昆姆·德·阿尔梅达 Joaquim de Almeida
       马克西姆·马特维耶夫 Maksim Matveev

标  签 白灵 | 跑 | 米基洛基 | [歐美]
简  介  
  Nero"s reign. The invasion of Parthia has been a fiasco. Two Roman legions have been brought to a stand still in the snowy mountains of Armenia, and the men are dying slowly in the cold. The rest of the Roman army is in Syria, only two weeks march away but the mountains swarm with Parthian patrols. Noreno, a half-Roman, is entrusted the mission of crossing the mountains to ask for help. However, he might not be the best option, he"s an expert runner, but he despises Rome.
  谷歌为您翻译:
  Nero的统治。对帕提亚的入侵是一场惨败。在亚美尼亚的雪山中,有两个罗马军团停滞不前,而这些人在寒冷中死得很慢。其余的罗马军队在叙利亚,距行军只有两个星期,但山上却聚集着帕提亚巡逻队。罗马人诺雷诺(Noreno)受托担负过山任务以寻求帮助。但是,他可能不是最好的选择,他是一名专业运动员,但他却鄙视罗马。
  腾讯为您翻译:
  。。。。。
  本站为您翻译:
  尼禄的统治。入侵安息的行动彻底失败。两个罗马军团在白雪皑皑的亚美尼亚山峰列表中停滞不前,士兵们在寒风中慢慢死去。其余的罗马军队在叙利亚,只有两个星期的行军距离,但山上挤满了帕提亚人的巡逻队。诺雷诺,一个半罗马人,被委以穿越山区寻求帮助的任务。然而,他可能不是最好的选择,他是一个跑步专家,但他鄙视罗马。


该资源信息参数
  • Video
  • ID                                       : 1
  • Format                                   : AVC
  • Format/Info                              : Advanced Video Codec
  • Format profile                           : High@L4.1
  • Format settings                          : CABAC / 8 Ref Frames
  • Format settings, CABAC                   : Yes
  • Format settings, Reference frames        : 8 frames
  • Codec ID                                 : V_MPEG4/ISO/AVC
  • Duration                                 : 1 h 35 min
  • Bit rate                                 : 2 385 kb/s
  • Width                                    : 1 280 pixels
  • Height                                   : 536 pixels
  • Display aspect ratio                     : 2.40:1
  • Frame rate mode                          : Constant
  • Frame rate                               : 23.976 (24000/1001) FPS
  • Color space                              : YUV
  • Chroma subsampling                       : 4:2:0
  • Bit depth                                : 8 bits
  • Scan type                                : Progressive
  • Bits/(Pixel*Frame)                       : 0.145
  • Stream size                              : 1.60 GiB (79%)
  • Writing library                          : x264 core 161 r3027 4121277
  • Encoding settings                        : cabac=1 / ref=8 / deblock=1:-3:-3 / analyse=0x3:0x133 / me=umh / subme=9 / psy=1 / psy_rd=1.00:0.00 / mixed_ref=1 / me_range=16 / chroma_me=1 / trellis=2 / 8x8dct=1 / cqm=0 / deadzone=21,11 / fast_pskip=0 / chroma_qp_offset=-2 / threads=17 / lookahead_threads=1 / sliced_threads=0 / nr=0 / decimate=1 / interlaced=0 / bluray_compat=0 / constrained_intra=0 / bframes=3 / b_pyramid=2 / b_adapt=2 / b_bias=0 / direct=3 / weightb=1 / open_gop=0 / weightp=2 / keyint=250 / keyint_min=23 / scenecut=40 / intra_refresh=0 / rc_lookahead=60 / rc=crf / mbtree=1 / crf=17.0 / qcomp=0.60 / qpmin=0 / qpmax=69 / qpstep=4 / ip_ratio=1.40 / aq=1:1.00
  • Language                                 : English
  • Default                                  : Yes
  • Forced                                   : No
  • Audio
  • ID                                       : 2
  • Format                                   : AC-3
  • Format/Info                              : Audio Coding 3
  • Commercial name                          : Dolby Digital
  • Codec ID                                 : A_AC3
  • Duration                                 : 1 h 35 min
  • Bit rate mode                            : Constant
  • Bit rate                                 : 640 kb/s
  • Channel(s)                               : 6 channels
  • Channel layout                           : L R C LFE Ls Rs
  • Sampling rate                            : 48.0 kHz
  • Frame rate                               : 31.250 FPS (1536 SPF)
  • Compression mode                         : Lossy
  • Stream size                              : 439 MiB (21%)
  • Language                                 : English
  • Service kind                             : Complete Main
  • Default                                  : Yes
  • Forced                                   : No
  • Text
  • ID                                       : 3
  • Format                                   : PGS
  • Muxing mode                              : zlib
  • Codec ID                                 : S_HDMV/PGS
  • Codec ID/Info                            : Picture based subtitle format used on BDs/HD-DVDs
  • Duration                                 : 1 h 29 min
  • Bit rate                                 : 15.7 kb/s
  • Count of elements                        : 1009
  • Stream size                              : 10.1 MiB (0%)
  • Language                                 : German
  • Default                                  : No
  • Forced                                   : No
  • Menu
  • 00:00:00.000                             : en:Kapitel 01
  • 00:04:11.084                             : en:Kapitel 02
  • 00:11:20.430                             : en:Kapitel 03
  • 00:21:18.694                             : en:Kapitel 04
  • 00:28:52.105                             : en:Kapitel 05
  • 00:37:21.448                             : en:Kapitel 06
  • 00:43:15.384                             : en:Kapitel 07
  • 00:46:50.099                             : en:Kapitel 08
  • 00:54:44.990                             : en:Kapitel 09
  • 01:05:41.229                             : en:Kapitel 10
  • 01:17:22.471                             : en:Kapitel 11
  • 01:30:39.100                             : en:Kapitel 12

复制代码



20190801120031.jpg














4K321提示您  点击下方附件名称  马上开始下载

勇士迷踪/军团的踪迹 The.Legion.2020.720p.BluRay.x264-JustWatch 2.03GB

The.Legion.2020.720p.BluRay.x264-JustWatch.torrent ( 20.91 KB )




               
回复

使用道具 举报

全部回复0 显示全部楼层

声明:您在社区发表的所有信息仅代表用户个人观点,与本网站立场无关,希望各位烧友理性发言,不发表违法国家法律禁止的话题。

您需要登录后才可以回帖 登录 | 立即注册

本版积分规则

联系客服 关注微信 下载APP 返回顶部 返回列表