开启左侧

[动作片] 怪物狩猎者/怪物猎人 Monster.Hunters.2020.720p.BluRay.x264-FREEMAN 3.02GB

蓝鸟 发表于 2021-1-12 18:06:31 | 显示全部楼层 |阅读模式
20190801120031.jpg



译  名 怪物狩猎者 / 怪物猎人
片  名 Monster Hunters
年  代 2020
产  地 美国
类  别 动作 / 科幻 / 惊悚 / 冒险
语  言 英语
上映日期 2020-08-25(美国)
IMDb链接  https://www.imdb.com/title/tt12942958
豆瓣评分 0/10 from 0 users
豆瓣链接 https://movie.douban.com/subject/35190131/
片  长 90分钟
主  演 汤姆·塞兹摩尔 Tom Sizemore
       安东尼·詹森 Anthony Jensen
       雅姿·坎利 Yaz Canli

简  介  
  当一艘外星监狱飞船在加州沙漠坠毁时,释放出一个又一个怪物,他们迅速消灭了试图阻止他们的军队。 现在阻止外星人的唯一希望,在于政府一个专门研究外星武器的秘密分支-怪物猎人联盟。 但由于这个团队未经实战检验,地球之战将会非常残酷。


该资源信息参数
  • Video
  • ID                                       : 1
  • Format                                   : AVC
  • Format/Info                              : Advanced Video Codec
  • Format profile                           : High@L4.1
  • Format settings                          : CABAC / 8 Ref Frames
  • Format settings, CABAC                   : Yes
  • Format settings, Reference frames        : 8 frames
  • Codec ID                                 : V_MPEG4/ISO/AVC
  • Duration                                 : 1 h 27 min
  • Bit rate                                 : 4 289 kb/s
  • Width                                    : 1 280 pixels
  • Height                                   : 534 pixels
  • Display aspect ratio                     : 2.40:1
  • Frame rate mode                          : Constant
  • Frame rate                               : 23.976 (24000/1001) FPS
  • Color space                              : YUV
  • Chroma subsampling                       : 4:2:0
  • Bit depth                                : 8 bits
  • Scan type                                : Progressive
  • Bits/(Pixel*Frame)                       : 0.262
  • Stream size                              : 2.63 GiB (87%)
  • Writing library                          : x264 core 161 r3018 db0d417
  • Encoding settings                        : cabac=1 / ref=8 / deblock=1:-3:-3 / analyse=0x3:0x133 / me=umh / subme=9 / psy=1 / psy_rd=1.00:0.00 / mixed_ref=1 / me_range=16 / chroma_me=1 / trellis=2 / 8x8dct=1 / cqm=0 / deadzone=21,11 / fast_pskip=1 / chroma_qp_offset=-2 / threads=17 / lookahead_threads=1 / sliced_threads=0 / nr=0 / decimate=1 / interlaced=0 / bluray_compat=0 / constrained_intra=0 / bframes=3 / b_pyramid=2 / b_adapt=2 / b_bias=0 / direct=3 / weightb=1 / open_gop=0 / weightp=2 / keyint=250 / keyint_min=23 / scenecut=40 / intra_refresh=0 / rc_lookahead=60 / rc=crf / mbtree=1 / crf=17.0 / qcomp=0.60 / qpmin=0 / qpmax=69 / qpstep=4 / ip_ratio=1.40 / aq=3:0.80
  • Language                                 : English
  • Default                                  : Yes
  • Forced                                   : No
  • Color range                              : Limited
  • Matrix coefficients                      : BT.709
  • Audio
  • ID                                       : 2
  • Format                                   : AC-3
  • Format/Info                              : Audio Coding 3
  • Commercial name                          : Dolby Digital
  • Codec ID                                 : A_AC3
  • Duration                                 : 1 h 27 min
  • Bit rate mode                            : Constant
  • Bit rate                                 : 640 kb/s
  • Channel(s)                               : 6 channels
  • Channel layout                           : L R C LFE Ls Rs
  • Sampling rate                            : 48.0 kHz
  • Frame rate                               : 31.250 FPS (1536 SPF)
  • Compression mode                         : Lossy
  • Stream size                              : 401 MiB (13%)
  • Title                                    : AC3
  • Language                                 : English
  • Service kind                             : Complete Main
  • Default                                  : Yes
  • Forced                                   : No
  • Text
  • ID                                       : 3
  • Format                                   : PGS
  • Muxing mode                              : zlib
  • Codec ID                                 : S_HDMV/PGS
  • Codec ID/Info                            : Picture based subtitle format used on BDs/HD-DVDs
  • Duration                                 : 1 h 21 min
  • Bit rate                                 : 102 b/s
  • Count of elements                        : 24
  • Stream size                              : 61.5 KiB (0%)
  • Language                                 : German
  • Default                                  : No
  • Forced                                   : No
  • Menu
  • 00:00:00.000                             : en:00:00:00.000
  • 00:11:46.998                             : en:00:11:46.998
  • 00:23:43.422                             : en:00:23:43.422
  • 00:33:25.045                             : en:00:33:25.045
  • 00:40:22.587                             : en:00:40:22.587
  • 00:54:28.974                             : en:00:54:28.974
  • 01:06:53.468                             : en:01:06:53.468
  • 01:19:00.319                             : en:01:19:00.319

复制代码



20190801120031.jpg














4K321提示您  点击下方附件名称  马上开始下载

怪物狩猎者/怪物猎人 Monster.Hunters.2020.720p.BluRay.x264-FREEMAN 3.02GB

Monster.Hunters.2020.720p.BluRay.x264-FREEMAN.torrent ( 30.77 KB )




               
回复

使用道具 举报

全部回复0 显示全部楼层

声明:您在社区发表的所有信息仅代表用户个人观点,与本网站立场无关,希望各位烧友理性发言,不发表违法国家法律禁止的话题。

您需要登录后才可以回帖 登录 | 立即注册

本版积分规则

联系客服 关注微信 下载APP 返回顶部 返回列表