开启左侧

[其它] 骑马夏令营:爱之故事 Horse.Camp.A.Love.Tail.2020.720p.BluRay.x264.DTS-FGT 3.99GB

蓝鸟 发表于 2021-1-12 17:58:10 | 显示全部楼层 |阅读模式







译  名 骑马夏令营: 爱之故事
片  名 Horse Camp: A Love Tail
年  代 2020
产  地 美国
类  别 家庭
语  言 英语
上映日期 2020-01-11(美国)
IMDb评分  4.8/10 from 30 users
IMDb链接  https://www.imdb.com/title/tt10941890/
豆瓣评分 /10 from 0 users
豆瓣链接 https://movie.douban.com/subject/35075207/
片  长 81分钟
编  剧 乔治·桑德斯 George Saunders
主  演 Richard Karn
       杰森·伦敦 Jason London
       Kristin Mellian

标  签 [歐美]

简  介

  这是夏季骑马营的新年,但这次一切都不同了——一个新的校长顾问,新朋友,为了调味,牧场手(理查德·卡恩)对骑头教练有迷恋



该资源信息参数
  • Video
  • ID                                       : 1
  • Format                                   : AVC
  • Format/Info                              : Advanced Video Codec
  • Format profile                           : High@L4.1
  • Format settings                          : CABAC / 4 Ref Frames
  • Format settings, CABAC                   : Yes
  • Format settings, Reference frames        : 4 frames
  • Codec ID                                 : V_MPEG4/ISO/AVC
  • Duration                                 : 1 h 21 min
  • Bit rate                                 : 5 500 kb/s
  • Width                                    : 1 280 pixels
  • Height                                   : 720 pixels
  • Display aspect ratio                     : 16:9
  • Frame rate mode                          : Constant
  • Frame rate                               : 23.976 (24000/1001/45775) FPS
  • Color space                              : YUV
  • Chroma subsampling                       : 4:2:0
  • Bit depth                                : 8 bits
  • Scan type                                : Progressive
  • Bits/(Pixel*Frame)                       : 0.249
  • Stream size                              : 3.13 GiB (78%)
  • Writing library                          : x264 core 148 r2795M aaa9aa8
  • Encoding settings                        : cabac=1 / ref=4 / deblock=1:-2:-2 / analyse=0x3:0x113 / me=umh / subme=9 / psy=1 / psy_rd=1.00:0.15 / mixed_ref=1 / me_range=16 / chroma_me=1 / trellis=2 / 8x8dct=1 / cqm=0 / deadzone=21,11 / fast_pskip=1 / chroma_qp_offset=-3 / threads=24 / lookahead_threads=3 / sliced_threads=0 / nr=0 / decimate=1 / interlaced=0 / bluray_compat=0 / constrained_intra=0 / bframes=3 / b_pyramid=2 / b_adapt=1 / b_bias=0 / direct=3 / weightb=1 / open_gop=0 / weightp=2 / keyint=250 / keyint_min=25 / scenecut=40 / intra_refresh=0 / rc_lookahead=50 / rc=2pass / mbtree=1 / bitrate=5500 / ratetol=1.0 / qcomp=0.60 / qpmin=0 / qpmax=69 / qpstep=4 / cplxblur=20.0 / qblur=0.5 / vbv_maxrate=31250 / vbv_bufsize=31250 / nal_hrd=none / filler=0 / ip_ratio=1.40 / aq=1:1.00
  • Language                                 : English
  • Default                                  : Yes
  • Forced                                   : No
  • Audio
  • ID                                       : 2
  • ID in the original source medium         : 4353 (0x1101)
  • Format                                   : DTS
  • Format/Info                              : Digital Theater Systems
  • Codec ID                                 : A_DTS
  • Duration                                 : 1 h 21 min
  • Bit rate mode                            : Constant
  • Bit rate                                 : 1 509 kb/s
  • Channel(s)                               : 6 channels
  • Channel layout                           : C L R Ls Rs LFE
  • Sampling rate                            : 48.0 kHz
  • Frame rate                               : 93.750 FPS (512 SPF)
  • Bit depth                                : 24 bits
  • Compression mode                         : Lossy
  • Stream size                              : 879 MiB (22%)
  • Title                                    : DTS 5.1
  • Language                                 : English
  • Default                                  : No
  • Forced                                   : No
  • Original source medium                   : Blu-ray
  • Text
  • ID                                       : 3
  • Format                                   : UTF-8
  • Codec ID                                 : S_TEXT/UTF8
  • Codec ID/Info                            : UTF-8 Plain Text
  • Duration                                 : 1 h 20 min
  • Bit rate                                 : 73 b/s
  • Count of elements                        : 1413
  • Stream size                              : 42.9 KiB (0%)
  • Title                                    : SRT
  • Language                                 : English
  • Default                                  : Yes
  • Forced                                   : No
  • Menu
  • 00:00:00.000                             : de:Chapter 01
  • 00:11:16.550                             : de:Chapter 02
  • 00:21:44.219                             : de:Chapter 03
  • 00:31:09.075                             : de:Chapter 04
  • 00:42:03.437                             : de:Chapter 05
  • 00:49:30.634                             : de:Chapter 06
  • 01:01:19.759                             : de:Chapter 07
  • 01:11:42.214                             : de:Chapter 08
  • 01:18:37.879                             : de:Chapter 09

复制代码























4K321提示您  点击下方附件名称  马上开始下载

骑马夏令营:爱之故事 Horse.Camp.A.Love.Tail.2020.720p.BluRay.x264.DTS-FGT 3.99GB

Horse.Camp.A.Love.Tail.2020.720p.BluRay.x264.DTS-FGT.torrent ( 40.47 KB )




               
回复

使用道具 举报

全部回复0 显示全部楼层

声明:您在社区发表的所有信息仅代表用户个人观点,与本网站立场无关,希望各位烧友理性发言,不发表违法国家法律禁止的话题。

您需要登录后才可以回帖 登录 | 立即注册

本版积分规则

联系客服 关注微信 下载APP 返回顶部 返回列表