开启左侧

[其它] 一切:真实故事 Everything.The.Real.Thing.Story.2019.720p.BluRay.x264-ORBS 3.58GB

蓝鸟 发表于 2021-1-12 17:55:27 | 显示全部楼层 |阅读模式




译  名 一切:真实故事
片  名 Everything - The Real Thing Story
年  代 2019
产  地 英国
类  别 纪录片
语  言 英语
IMDb评分  8.3/10 from 67 users
IMDb链接  https://www.imdb.com/title/tt11046788
豆瓣评分 0/10 from 0 users
豆瓣链接 https://movie.douban.com/subject/34898204/
片  长 94分钟
导  演 Simon Sheridan
编  剧 Simon Sheridan
主  演 雅各布·安德森 Jacob Anderson
       Billy Ocean
       Kim Wilde
       大卫·埃塞克斯 David Essex
       保罗·巴伯 Paul Barber
       路易斯·埃默里克 Louis Emerick


标  签 英国 | 纪录片 | 电影

简  介  

  暂无相关剧情介绍



该资源信息参数
  • Video
  • ID                                       : 1
  • Format                                   : AVC
  • Format/Info                              : Advanced Video Codec
  • Format profile                           : High@L4.1
  • Format settings                          : CABAC / 9 Ref Frames
  • Format settings, CABAC                   : Yes
  • Format settings, Reference frames        : 9 frames
  • Codec ID                                 : V_MPEG4/ISO/AVC
  • Duration                                 : 1 h 33 min
  • Bit rate                                 : 4 779 kb/s
  • Width                                    : 1 280 pixels
  • Height                                   : 720 pixels
  • Display aspect ratio                     : 16:9
  • Frame rate mode                          : Constant
  • Frame rate                               : 25.000 FPS
  • Color space                              : YUV
  • Chroma subsampling                       : 4:2:0
  • Bit depth                                : 8 bits
  • Scan type                                : Progressive
  • Bits/(Pixel*Frame)                       : 0.207
  • Stream size                              : 3.12 GiB (87%)
  • Writing library                          : x264 core 161 r3027 4121277
  • Encoding settings                        : cabac=1 / ref=9 / deblock=1:-3:-3 / analyse=0x3:0x133 / me=umh / subme=10 / psy=1 / psy_rd=1.20:0.00 / mixed_ref=1 / me_range=24 / chroma_me=1 / trellis=2 / 8x8dct=1 / cqm=0 / deadzone=21,11 / fast_pskip=0 / chroma_qp_offset=-2 / threads=6 / lookahead_threads=1 / sliced_threads=0 / nr=0 / decimate=0 / interlaced=0 / NDU3Nzg= / bluray_compat=0 / constrained_intra=0 / bframes=8 / b_pyramid=2 / b_adapt=2 / b_bias=0 / direct=3 / weightb=1 / open_gop=0 / weightp=2 / keyint=250 / keyint_min=25 / scenecut=40 / intra_refresh=0 / rc_lookahead=60 / rc=crf / mbtree=1 / crf=16.0 / qcomp=0.60 / qpmin=0 / qpmax=69 / qpstep=4 / NDU3Nzg=feCb3SYgnbojFoo / ip_ratio=1.40 / aq=3:0.90
  • Default                                  : Yes
  • Forced                                   : No
  • Color range                              : Limited
  • Matrix coefficients                      : BT.709
  • Audio #1
  • ID                                       : 2
  • Format                                   : FLAC
  • Format/Info                              : Free Lossless Audio Codec
  • Codec ID                                 : A_FLAC
  • Duration                                 : 1 h 33 min
  • Bit rate mode                            : Variable
  • Bit rate                                 : 609 kb/s
  • Channel(s)                               : 2 channels
  • Channel layout                           : L R
  • Sampling rate                            : 48.0 kHz
  • Frame rate                               : 11.719 FPS (4096 SPF)
  • Bit depth                                : 16 bits
  • Compression mode                         : Lossless
  • Stream size                              : 407 MiB (11%)
  • Writing library                          : libFLAC 1.3.2 (UTC 2017-01-01)
  • Language                                 : English
  • Default                                  : Yes
  • Forced                                   : No
  • Audio #2
  • ID                                       : 3
  • Format                                   : AAC LC
  • Format/Info                              : Advanced Audio Codec Low Complexity
  • Codec ID                                 : A_AAC-2
  • Duration                                 : 1 h 33 min
  • Bit rate                                 : 96.0 kb/s
  • Channel(s)                               : 2 channels
  • Channel layout                           : L R
  • Sampling rate                            : 48.0 kHz
  • Frame rate                               : 46.875 FPS (1024 SPF)
  • Compression mode                         : Lossy
  • Delay relative to video                  : 20 ms
  • Stream size                              : 65.4 MiB (2%)
  • Title                                    : Commentary
  • Language                                 : English
  • Default                                  : No
  • Forced                                   : No
  • Menu
  • 00:00:00.000                             : en:Chapter 01
  • 00:02:19.680                             : en:Chapter 02
  • 00:05:58.920                             : en:Chapter 03
  • 00:18:20.680                             : en:Chapter 04
  • 00:31:52.520                             : en:Chapter 05
  • 00:37:24.280                             : en:Chapter 06
  • 00:56:36.200                             : en:Chapter 07
  • 01:14:05.440                             : en:Chapter 08
  • 01:16:12.680                             : en:Chapter 09
  • 01:22:48.880                             : en:Chapter 10
  • 01:27:16.920                             : en:Chapter 11
  • 01:30:34.560                             : en:Chapter 12

复制代码

















4K321提示您  点击下方附件名称  马上开始下载

一切:真实故事 Everything.The.Real.Thing.Story.2019.720p.BluRay.x264-ORBS 3.58GB

Everything.The.Real.Thing.Story.2019.720p.BluRay.x264-ORBS.torrent ( 36.51 KB )




               
回复

使用道具 举报

全部回复0 显示全部楼层

声明:您在社区发表的所有信息仅代表用户个人观点,与本网站立场无关,希望各位烧友理性发言,不发表违法国家法律禁止的话题。

您需要登录后才可以回帖 登录 | 立即注册

本版积分规则

联系客服 关注微信 下载APP 返回顶部 返回列表