开启左侧

[其它] 共生心理分类学:第二又二分之一章/共生心理分类学 Symbiopsychotaxiplasm.Take.2.1.2.2005.720p.BluRay.x264-

蓝鸟 发表于 2021-1-12 17:50:47 | 显示全部楼层 |阅读模式




译  名 共生心理分类学:第二又二分之一章 / 共生心理分类学 / 还我本真
片  名 Symbiopsychotaxiplasm: Take 2 1 / 2
年  代 2005
产  地 美国
类  别 纪录片
语  言 英语
上映日期 2006-03-30
IMDb评分  6.6/10 from 289 users
IMDb链接  https://www.imdb.com/title/tt0436811
豆瓣评分 6.2/10 from 110 users
豆瓣链接 https://movie.douban.com/subject/2004707/
片  长 99分钟
导  演 威廉·格雷夫斯 William Greaves
编  剧 威廉·格雷夫斯 William Greaves
主  演 威廉·格雷夫斯 William Greaves
       Stevan Larner
       史蒂夫·布西密 Steve Buscemi
       Phil Parmet


标  签 纪录片 | 美国 | CC | 美国电影 | 2005 | 2000s | WilliamGreaves | 青春

简  介  

  暂无相关剧情介绍



该资源信息参数
  • Video
  • ID                                       : 1
  • Format                                   : AVC
  • Format/Info                              : Advanced Video Codec
  • Format profile                           : High@L4.1
  • Format settings                          : CABAC / 9 Ref Frames
  • Format settings, CABAC                   : Yes
  • Format settings, Reference frames        : 9 frames
  • Codec ID                                 : V_MPEG4/ISO/AVC
  • Duration                                 : 1 h 39 min
  • Bit rate                                 : 6 498 kb/s
  • Width                                    : 1 280 pixels
  • Height                                   : 718 pixels
  • Display aspect ratio                     : 16:9
  • Frame rate mode                          : Constant
  • Frame rate                               : 29.970 (30000/1001/45778) FPS
  • Color space                              : YUV
  • Chroma subsampling                       : 4:2:0
  • Bit depth                                : 8 bits
  • Scan type                                : Progressive
  • Bits/(Pixel*Frame)                       : 0.236
  • Stream size                              : 4.53 GiB (91%)
  • Writing library                          : x264 core 161 r3027 4121277
  • Encoding settings                        : cabac=1 / ref=9 / deblock=1:-3:-3 / analyse=0x3:0x133 / me=umh / subme=10 / psy=1 / psy_rd=1.20:0.00 / mixed_ref=1 / me_range=24 / chroma_me=1 / trellis=2 / 8x8dct=1 / cqm=0 / deadzone=21,11 / fast_pskip=0 / chroma_qp_offset=-2 / threads=22 / lookahead_threads=3 / sliced_threads=0 / nr=0 / decimate=0 / interlaced=0 / NDU3Nzg= / bluray_compat=0 / constrained_intra=0 / bframes=8 / b_pyramid=2 / b_adapt=2 / b_bias=0 / direct=3 / weightb=1 / open_gop=0 / weightp=2 / keyint=250 / keyint_min=25 / scenecut=40 / intra_refresh=0 / rc_lookahead=60 / rc=crf / mbtree=1 / crf=18.0 / qcomp=0.60 / qpmin=0 / qpmax=69 / qpstep=4 / NDU3Nzg=feCb3SYgnbojFoo / ip_ratio=1.40 / aq=3:0.90
  • Default                                  : Yes
  • Forced                                   : No
  • Color range                              : Limited
  • Matrix coefficients                      : BT.709
  • Audio
  • ID                                       : 2
  • Format                                   : FLAC
  • Format/Info                              : Free Lossless Audio Codec
  • Codec ID                                 : A_FLAC
  • Duration                                 : 1 h 39 min
  • Bit rate mode                            : Variable
  • Bit rate                                 : 638 kb/s
  • Channel(s)                               : 1 channel
  • Channel layout                           : C
  • Sampling rate                            : 48.0 kHz
  • Frame rate                               : 11.719 FPS (4096 SPF)
  • Bit depth                                : 24 bits
  • Compression mode                         : Lossless
  • Stream size                              : 455 MiB (9%)
  • Writing library                          : libFLAC 1.3.2 (UTC 2017-01-01)
  • Language                                 : English
  • Default                                  : Yes
  • Forced                                   : No
  • Text
  • ID                                       : 3
  • Format                                   : PGS
  • Muxing mode                              : zlib
  • Codec ID                                 : S_HDMV/PGS
  • Codec ID/Info                            : Picture based subtitle format used on BDs/HD-DVDs
  • Duration                                 : 1 h 37 min
  • Bit rate                                 : 88.6 kb/s
  • Count of elements                        : 3454
  • Stream size                              : 61.6 MiB (1%)
  • Title                                    : SDH
  • Language                                 : English
  • Default                                  : No
  • Forced                                   : No
  • Menu
  • 00:00:00.000                             : en:Chapter 01
  • 00:05:40.273                             : en:Chapter 02
  • 00:09:36.609                             : en:Chapter 03
  • 00:16:01.527                             : en:Chapter 04
  • 00:18:28.607                             : en:Chapter 05
  • 00:24:59.565                             : en:Chapter 06
  • 00:31:44.669                             : en:Chapter 07
  • 00:36:49.974                             : en:Chapter 08
  • 00:43:46.557                             : en:Chapter 09
  • 00:48:13.691                             : en:Chapter 10
  • 00:51:28.018                             : en:Chapter 11
  • 00:55:10.007                             : en:Chapter 12
  • 01:02:19.769                             : en:Chapter 13
  • 01:07:08.291                             : en:Chapter 14
  • 01:12:45.461                             : en:Chapter 15
  • 01:19:23.092                             : en:Chapter 16
  • 01:25:37.933                             : en:Chapter 17
  • 01:28:57.399                             : en:Chapter 18
  • 01:31:59.547                             : en:Chapter 19
  • 01:34:37.438                             : en:Chapter 20
  • 01:38:25.233                             : en:Chapter 21

复制代码

















4K321提示您  点击下方附件名称  马上开始下载

共生心理分类学:第二又二分之一章/共生心理分类学 Symbiopsychotaxiplasm.Take.2.1.2.2005.720p.BluRay.x264-ORBS 4.98GB

Symbiopsychotaxiplasm.Take.2.1.2.2005.720p.BluRay.x264-ORBS.torrent ( 50.51 KB )




               
回复

使用道具 举报

全部回复0 显示全部楼层

声明:您在社区发表的所有信息仅代表用户个人观点,与本网站立场无关,希望各位烧友理性发言,不发表违法国家法律禁止的话题。

您需要登录后才可以回帖 登录 | 立即注册

本版积分规则

联系客服 关注微信 下载APP 返回顶部 返回列表