开启左侧

[悬疑片] 鬼屋惊魂 The.Child.Remains.2017.720p.BluRay.x264-GETiT 3.37GB

蓝鸟 发表于 2021-1-12 17:47:07 | 显示全部楼层 |阅读模式
20190801120031.jpg


译  名 鬼屋惊魂
片  名 The Child Remains
年  代 2017
产  地 加拿大
类  别 悬疑 / 惊悚 / 恐怖
语  言 英语
上映日期 2017-06-17(上海电影节)
IMDb评分  4.6/10 from 403 users
IMDb链接  https://www.imdb.com/title/tt5343532
豆瓣评分 0/10 from 0 users
豆瓣链接 https://movie.douban.com/subject/27063231/
片  长 113分钟
主  演 苏珊娜·克莱蒙 Suzanne Clément
       艾伦·霍科 Allan Hawco

标  签 惊悚 | 上海电影节 | 加拿大 | 恐怖片 | 恐怖 | 诡异 | 电影 | 灵异
简  介  
  本片受到《黄油盒婴儿》真实故事的启发,是一部曲折的超自然惊悚片,也是向《闪灵》、《罗丝玛丽的婴儿》、《9号谋杀案》等经典慢热恐怖片的致敬。影片讲述了一对夫妇为了给妻子庆祝生日来到一个乡村酒店度周末,但这个酒店其实是一个闹鬼的孕产妇家庭所开,有婴儿和母亲在此被谋杀。由此这对夫妻遇到了一系列惊悚的事情。影片主演阵容强大,由戛纳影后苏珊娜·克莱门特领衔主演。


该资源信息参数
  • Video
  • ID                                       : 1
  • Format                                   : AVC
  • Format/Info                              : Advanced Video Codec
  • Format profile                           : High@L4.1
  • Format settings                          : CABAC / 8 Ref Frames
  • Format settings, CABAC                   : Yes
  • Format settings, Reference frames        : 8 frames
  • Codec ID                                 : V_MPEG4/ISO/AVC
  • Duration                                 : 1 h 47 min
  • Bit rate                                 : 3 832 kb/s
  • Width                                    : 1 280 pixels
  • Height                                   : 720 pixels
  • Display aspect ratio                     : 16:9
  • Frame rate mode                          : Constant
  • Frame rate                               : 23.976 (24000/1001) FPS
  • Color space                              : YUV
  • Chroma subsampling                       : 4:2:0
  • Bit depth                                : 8 bits
  • Scan type                                : Progressive
  • Bits/(Pixel*Frame)                       : 0.173
  • Stream size                              : 2.88 GiB (86%)
  • Writing library                          : x264 core 161 r3018 db0d417
  • Encoding settings                        : cabac=1 / ref=8 / deblock=1:-3:-3 / analyse=0x3:0x133 / me=umh / subme=9 / psy=1 / psy_rd=1.00:0.00 / mixed_ref=1 / me_range=16 / chroma_me=1 / trellis=2 / 8x8dct=1 / cqm=0 / deadzone=21,11 / fast_pskip=1 / chroma_qp_offset=-2 / threads=18 / lookahead_threads=1 / sliced_threads=0 / nr=0 / decimate=1 / interlaced=0 / bluray_compat=0 / constrained_intra=0 / bframes=3 / b_pyramid=2 / b_adapt=2 / b_bias=0 / direct=3 / weightb=1 / open_gop=0 / weightp=2 / keyint=250 / keyint_min=23 / scenecut=40 / intra_refresh=0 / rc_lookahead=60 / rc=crf / mbtree=1 / crf=17.0 / qcomp=0.60 / qpmin=0 / qpmax=69 / qpstep=4 / ip_ratio=1.40 / aq=3:0.80
  • Language                                 : English
  • Default                                  : Yes
  • Forced                                   : No
  • Color range                              : Limited
  • Matrix coefficients                      : BT.709
  • Audio
  • ID                                       : 2
  • Format                                   : AC-3
  • Format/Info                              : Audio Coding 3
  • Commercial name                          : Dolby Digital
  • Codec ID                                 : A_AC3
  • Duration                                 : 1 h 47 min
  • Bit rate mode                            : Constant
  • Bit rate                                 : 640 kb/s
  • Channel(s)                               : 6 channels
  • Channel layout                           : L R C LFE Ls Rs
  • Sampling rate                            : 48.0 kHz
  • Frame rate                               : 31.250 FPS (1536 SPF)
  • Compression mode                         : Lossy
  • Stream size                              : 493 MiB (14%)
  • Title                                    : ac3
  • Language                                 : English
  • Service kind                             : Complete Main
  • Default                                  : Yes
  • Forced                                   : No
  • Menu
  • 00:00:00.000                             : en:00:00:00.000
  • 00:12:40.760                             : en:00:12:40.760
  • 00:23:34.413                             : en:00:23:34.413
  • 00:37:58.276                             : en:00:37:58.276
  • 00:50:39.036                             : en:00:50:39.036
  • 01:03:23.800                             : en:01:03:23.800
  • 01:15:00.496                             : en:01:15:00.496
  • 01:29:03.338                             : en:01:29:03.338
  • 01:45:48.342                             : en:01:45:48.342

复制代码


20190801120031.jpg













4K321提示您  点击下方附件名称  马上开始下载

鬼屋惊魂 The.Child.Remains.2017.720p.BluRay.x264-GETiT 3.37GB

The.Child.Remains.2017.720p.BluRay.x264-GETiT.torrent ( 34.3 KB )




               
回复

使用道具 举报

全部回复0 显示全部楼层

声明:您在社区发表的所有信息仅代表用户个人观点,与本网站立场无关,希望各位烧友理性发言,不发表违法国家法律禁止的话题。

您需要登录后才可以回帖 登录 | 立即注册

本版积分规则

联系客服 关注微信 下载APP 返回顶部 返回列表