开启左侧

[喜剧片] 虎凤假凰第二集/一笼傻鸟2 Birds.of.a.Feather.2.1980.DUBBED.720p.BluRay.x264-GUACAMOLE 3.72GB

蓝鸟 发表于 2021-1-12 17:35:14 | 显示全部楼层 |阅读模式




译  名 虎凤假凰第二集 / 一笼傻鸟2 / 假凤虚凰续集
片  名 Cage aux folles II, La
年  代 1980
产  地 法国 / 意大利
类  别 喜剧
语  言 法语
上映日期 1980-12-10
IMDb评分  5.8/10 from 1863 users
IMDb链接  https://www.imdb.com/title/tt0080489
豆瓣评分 0/10 from 0 users
豆瓣链接 https://movie.douban.com/subject/1304887/
片  长 Argentina: 99 分钟
导  演 埃德沃德·莫利纳罗 Edouard Molinaro
编  剧 弗朗西斯·韦贝尔 Francis Veber / 让·普瓦雷 Jean Poiret / 马赛罗·达农 Marcello Danon
主  演 米歇尔·塞罗尔 Michel Serrault
       乌戈·托尼亚齐 Ugo Tognazzi
       纳扎雷诺·纳塔莱 Nazzareno Natale
       格劳科·奥诺拉托 Glauco Onorato
       马塞尔·博祖菲 Marcel Bozzuffi
       内洛·帕扎菲尼 Nello Pazzafini
       保拉·布鲁布尼 Paola Borboni
       米歇尔·加拉布吕 Michel Galabru
       斯特凡·奥德朗 Stéphane Audran

标  签 法国 | 同志 | 喜剧 | 法国电影 | 电影 | 假凤虚凰 | aux | Cage
简  介  
  本片是由《一笼傻鸟》的原班人马拍摄的续集。影片讲述艾宾(米歇尔·塞侯 饰演)由于不满男友雷纳托说他年纪大,于是扮成女人的样子走上大街,希望证明自己魅力不减。却不想半路遇到正在逃亡的间谍,卷入了一场国际间谍战……


该资源信息参数
  • Video
  • ID                                       : 1
  • Format                                   : AVC
  • Format/Info                              : Advanced Video Codec
  • Format profile                           : High@L4.1
  • Format settings                          : CABAC / 8 Ref Frames
  • Format settings, CABAC                   : Yes
  • Format settings, Reference frames        : 8 frames
  • Codec ID                                 : V_MPEG4/ISO/AVC
  • Duration                                 : 1 h 39 min
  • Bit rate                                 : 5 116 kb/s
  • Width                                    : 1 206 pixels
  • Height                                   : 720 pixels
  • Display aspect ratio                     : 5:3
  • Frame rate mode                          : Constant
  • Frame rate                               : 23.976 (24000/1001) FPS
  • Color space                              : YUV
  • Chroma subsampling                       : 4:2:0
  • Bit depth                                : 8 bits
  • Scan type                                : Progressive
  • Bits/(Pixel*Frame)                       : 0.246
  • Stream size                              : 3.55 GiB (96%)
  • Writing library                          : x264 core 161 r3027 4121277
  • Encoding settings                        : cabac=1 / ref=8 / deblock=1:-3:-3 / analyse=0x3:0x133 / me=umh / subme=9 / psy=1 / psy_rd=1.00:0.00 / mixed_ref=1 / me_range=16 / chroma_me=1 / trellis=2 / 8x8dct=1 / cqm=0 / deadzone=21,11 / fast_pskip=0 / chroma_qp_offset=-2 / threads=22 / lookahead_threads=1 / sliced_threads=0 / nr=0 / decimate=1 / interlaced=0 / bluray_compat=0 / constrained_intra=0 / bframes=3 / b_pyramid=2 / b_adapt=2 / b_bias=0 / direct=3 / weightb=1 / open_gop=0 / weightp=2 / keyint=250 / keyint_min=23 / scenecut=40 / intra_refresh=0 / rc_lookahead=60 / rc=crf / mbtree=1 / crf=20.0 / qcomp=0.60 / qpmin=0 / qpmax=69 / qpstep=4 / ip_ratio=1.40 / aq=3:0.60
  • Default                                  : Yes
  • Forced                                   : No
  • Color range                              : Limited
  • Color primaries                          : BT.709
  • Transfer characteristics                 : BT.709
  • Matrix coefficients                      : BT.709
  • Audio
  • ID                                       : 2
  • Format                                   : FLAC
  • Format/Info                              : Free Lossless Audio Codec
  • Codec ID                                 : A_FLAC
  • Duration                                 : 1 h 39 min
  • Bit rate mode                            : Variable
  • Bit rate                                 : 231 kb/s
  • Channel(s)                               : 2 channels
  • Channel layout                           : L R
  • Sampling rate                            : 48.0 kHz
  • Frame rate                               : 11.719 FPS (4096 SPF)
  • Bit depth                                : 24 bits
  • Compression mode                         : Lossless
  • Stream size                              : 164 MiB (4%)
  • Writing library                          : libFLAC 1.2.1 (UTC 2007-09-17)
  • Language                                 : English
  • Default                                  : Yes
  • Forced                                   : No
  • Text
  • ID                                       : 3
  • Format                                   : PGS
  • Muxing mode                              : zlib
  • Codec ID                                 : S_HDMV/PGS
  • Codec ID/Info                            : Picture based subtitle format used on BDs/HD-DVDs
  • Duration                                 : 1 h 33 min
  • Bit rate                                 : 8 315 b/s
  • Count of elements                        : 1504
  • Stream size                              : 5.56 MiB (0%)
  • Language                                 : German
  • Default                                  : No
  • Forced                                   : No
  • Menu
  • 00:00:00.000                             : en:00:00:00.000
  • 00:06:08.076                             : en:00:06:08.076
  • 00:15:12.036                             : en:00:15:12.036
  • 00:17:18.913                             : en:00:17:18.913
  • 00:20:42.575                             : en:00:20:42.575
  • 00:25:18.809                             : en:00:25:18.809
  • 00:32:58.810                             : en:00:32:58.810
  • 00:37:20.113                             : en:00:37:20.113
  • 00:42:07.984                             : en:00:42:07.984
  • 00:47:51.285                             : en:00:47:51.285
  • 00:58:01.812                             : en:00:58:01.812
  • 01:04:08.511                             : en:01:04:08.511
  • 01:10:15.545                             : en:01:10:15.545
  • 01:18:20.738                             : en:01:18:20.738
  • 01:25:16.111                             : en:01:25:16.111
  • 01:33:40.448                             : en:01:33:40.448

复制代码


















4K321提示您  点击下方附件名称  马上开始下载

虎凤假凰第二集/一笼傻鸟2 Birds.of.a.Feather.2.1980.DUBBED.720p.BluRay.x264-GUACAMOLE 3.72GB

Birds.of.a.Feather.2.1980.DUBBED.720p.BluRay.x264-GUACAMOLE.torrent ( 37.77 KB )




               
回复

使用道具 举报

全部回复0 显示全部楼层

声明:您在社区发表的所有信息仅代表用户个人观点,与本网站立场无关,希望各位烧友理性发言,不发表违法国家法律禁止的话题。

您需要登录后才可以回帖 登录 | 立即注册

本版积分规则

联系客服 关注微信 下载APP 返回顶部 返回列表