开启左侧

[恐怖片] 魔鸟/乌鸦 The.Raven.1935.720p.BluRay.x264-GUACAMOLE 2.40GB

蓝鸟 发表于 2021-1-12 17:34:08 | 显示全部楼层 |阅读模式




译  名 魔鸟 / 乌鸦
片  名 The Raven
年  代 1935
产  地 美国
类  别 恐怖
语  言 英语
上映日期 1935-07-08(美国)
IMDb评分  7.0/10 from 4626 users
IMDb链接  https://www.imdb.com/title/tt0026912
豆瓣评分 0/10 from 0 users
豆瓣链接 https://movie.douban.com/subject/2264882/
片  长 61 分钟
导  演 卢·兰德斯 Lew Landers
编  剧 埃德加·爱伦·坡  Edgar Allan Poe / 大卫·贝姆 David Boehm / Florence Enright / 盖伊·艾杜尔 Guy Endore / 多尔·沙里 Dore Schary / Clarence Marks / 吉姆·塔利 Jim Tully
主  演 伊内兹·考特尼 Inez Courtney
       巴德·奥斯博内 Bud Osborne
       Maidel Turner
       Cyril Thornton
       伊安·沃尔夫 Ian Wolfe
       Irene Ware
       海伦·韦尔 Helen Ware
       Mary Wallace
       贝拉·卢戈西 Bela Lugosi
       Walter Miller
       莱斯特·马修斯 Lester Matthews
       斯潘塞·查特斯 Spencer Charters
       Anne Darling
       Al Ferguson
       波利斯·卡洛夫 Boris Karloff
       Joe Haworth
       亚瑟·霍伊特 Arthur Hoyt
       June Gittelson
       萨缪尔·S·辛兹 Samuel S. Hinds
       乔纳森·哈勒 Jonathan Hale

标  签 美国 | 爱伦·坡 | 恐怖 | 1935 | Horror | EdgarAllanPoe | 美国电影 | Boris_Karloff
简  介  
  A brilliant surgeon obsessed with Edgar Allan Poe saves the life of a beautiful dancer and goes mad when he can"t have her.
  谷歌为您翻译:
  一位痴迷于埃德加·爱伦·坡(Edgar Allan Poe)的出色外科医师挽救了一位美丽舞者的性命,并在他无法生育时发疯。
  本站为您翻译:
  一个痴迷于埃德加 · 爱伦 · 坡的杰出外科医生拯救了一个美丽舞者的生命,却因为得不到她而发疯。


该资源信息参数
  • Video
  • ID                                       : 1
  • Format                                   : AVC
  • Format/Info                              : Advanced Video Codec
  • Format profile                           : High@L4.1
  • Format settings                          : CABAC / 8 Ref Frames
  • Format settings, CABAC                   : Yes
  • Format settings, Reference frames        : 8 frames
  • Codec ID                                 : V_MPEG4/ISO/AVC
  • Duration                                 : 1 h 1 min
  • Bit rate                                 : 5 390 kb/s
  • Width                                    : 988 pixels
  • Height                                   : 720 pixels
  • Display aspect ratio                     : 1.372
  • Frame rate mode                          : Constant
  • Frame rate                               : 23.976 (24000/1001) FPS
  • Color space                              : YUV
  • Chroma subsampling                       : 4:2:0
  • Bit depth                                : 8 bits
  • Scan type                                : Progressive
  • Bits/(Pixel*Frame)                       : 0.316
  • Stream size                              : 2.31 GiB (96%)
  • Writing library                          : x264 core 161 r3027 4121277
  • Encoding settings                        : cabac=1 / ref=8 / deblock=1:-3:-3 / analyse=0x3:0x133 / me=umh / subme=9 / psy=1 / psy_rd=1.00:0.00 / mixed_ref=1 / me_range=16 / chroma_me=1 / trellis=2 / 8x8dct=1 / cqm=0 / deadzone=21,11 / fast_pskip=0 / chroma_qp_offset=-2 / threads=22 / lookahead_threads=1 / sliced_threads=0 / nr=0 / decimate=1 / interlaced=0 / bluray_compat=0 / constrained_intra=0 / bframes=3 / b_pyramid=2 / b_adapt=2 / b_bias=0 / direct=3 / weightb=1 / open_gop=0 / weightp=2 / keyint=250 / keyint_min=23 / scenecut=40 / intra_refresh=0 / rc_lookahead=60 / rc=crf / mbtree=1 / crf=19.0 / qcomp=0.60 / qpmin=0 / qpmax=69 / qpstep=4 / ip_ratio=1.40 / aq=3:0.60
  • Default                                  : Yes
  • Forced                                   : No
  • Color range                              : Limited
  • Color primaries                          : BT.709
  • Transfer characteristics                 : BT.709
  • Matrix coefficients                      : BT.709
  • Audio
  • ID                                       : 2
  • Format                                   : FLAC
  • Format/Info                              : Free Lossless Audio Codec
  • Codec ID                                 : A_FLAC
  • Duration                                 : 1 h 1 min
  • Bit rate mode                            : Variable
  • Bit rate                                 : 214 kb/s
  • Channel(s)                               : 2 channels
  • Channel layout                           : L R
  • Sampling rate                            : 48.0 kHz
  • Frame rate                               : 11.719 FPS (4096 SPF)
  • Bit depth                                : 16 bits
  • Compression mode                         : Lossless
  • Stream size                              : 93.9 MiB (4%)
  • Writing library                          : libFLAC 1.2.1 (UTC 2007-09-17)
  • Language                                 : English
  • Default                                  : Yes
  • Forced                                   : No
  • Menu
  • 00:00:00.000                             : en:00:00:00.000
  • 00:09:54.594                             : en:00:09:54.594
  • 00:12:39.759                             : en:00:12:39.759
  • 00:16:27.987                             : en:00:16:27.987
  • 00:26:57.616                             : en:00:26:57.616
  • 00:29:11.750                             : en:00:29:11.750
  • 00:37:05.223                             : en:00:37:05.223
  • 00:42:38.556                             : en:00:42:38.556
  • 00:46:05.763                             : en:00:46:05.763
  • 00:49:03.941                             : en:00:49:03.941
  • 00:53:18.195                             : en:00:53:18.195
  • 00:56:49.406                             : en:00:56:49.406

复制代码


















4K321提示您  点击下方附件名称  马上开始下载

魔鸟/乌鸦 The.Raven.1935.720p.BluRay.x264-GUACAMOLE 2.40GB

The.Raven.1935.720p.BluRay.x264-GUACAMOLE.torrent ( 24.62 KB )




               
回复

使用道具 举报

全部回复0 显示全部楼层

声明:您在社区发表的所有信息仅代表用户个人观点,与本网站立场无关,希望各位烧友理性发言,不发表违法国家法律禁止的话题。

您需要登录后才可以回帖 登录 | 立即注册

本版积分规则

联系客服 关注微信 下载APP 返回顶部 返回列表