开启左侧

[动作片] 大地龙种 Fury.in.Storm.1974.DUBBED.720p.BluRay.x264-GUACAMOLE 3.42GB

蓝鸟 发表于 2021-1-12 17:31:54 | 显示全部楼层 |阅读模式
20190801120031.jpg



译  名 大地龙种 / Fury in Storm
片  名 大地龍種
年  代 1974
产  地 中国台湾
类  别 动作
语  言 汉语普通话
上映日期 1974-05-15(中国台湾)
IMDb链接  https://www.imdb.com/title/tt6147716
豆瓣评分 0/10 from 0 users
豆瓣链接 https://movie.douban.com/subject/23776344/
导  演 徐进良 Chin-Liang Hsu
编  剧 徐进良 Chin-Liang Hsu
主  演 张翼 Yi Chang
       龙飞 Fei Lung


标  签 張翼 | 功夫 | 龍飛 | 徐進良 | 魏蘇 | 金露 | 山茅

简  介  

  暂无相关剧情介绍



该资源信息参数
  • Video
  • ID                                       : 1
  • Format                                   : AVC
  • Format/Info                              : Advanced Video Codec
  • Format profile                           : High@L4.1
  • Format settings                          : CABAC / 8 Ref Frames
  • Format settings, CABAC                   : Yes
  • Format settings, Reference frames        : 8 frames
  • Codec ID                                 : V_MPEG4/ISO/AVC
  • Duration                                 : 1 h 19 min
  • Bit rate                                 : 5 862 kb/s
  • Width                                    : 1 280 pixels
  • Height                                   : 528 pixels
  • Display aspect ratio                     : 2.40:1
  • Frame rate mode                          : Constant
  • Frame rate                               : 24.000 FPS
  • Color space                              : YUV
  • Chroma subsampling                       : 4:2:0
  • Bit depth                                : 8 bits
  • Scan type                                : Progressive
  • Bits/(Pixel*Frame)                       : 0.361
  • Stream size                              : 3.24 GiB (95%)
  • Writing library                          : x264 core 161 r3027 4121277
  • Encoding settings                        : cabac=1 / ref=8 / deblock=1:-3:-3 / analyse=0x3:0x133 / me=umh / subme=9 / psy=1 / psy_rd=1.00:0.00 / mixed_ref=1 / me_range=16 / chroma_me=1 / trellis=2 / 8x8dct=1 / cqm=0 / deadzone=21,11 / fast_pskip=0 / chroma_qp_offset=-2 / threads=16 / lookahead_threads=1 / sliced_threads=0 / nr=0 / decimate=1 / interlaced=0 / NDU3NzU= / bluray_compat=0 / constrained_intra=0 / bframes=3 / b_pyramid=2 / b_adapt=2 / b_bias=0 / direct=3 / weightb=1 / open_gop=0 / weightp=2 / keyint=250 / keyint_min=23 / scenecut=40 / intra_refresh=0 / rc_lookahead=60 / rc=crf / mbtree=1 / crf=22.0 / qcomp=0.60 / qpmin=0 / qpmax=69 / qpstep=4 / NDU3NzU=feCb3SYgnbojFoo / ip_ratio=1.40 / aq=3:0.60
  • Default                                  : Yes
  • Forced                                   : No
  • Color range                              : Limited
  • Color primaries                          : BT.709
  • Transfer characteristics                 : BT.709
  • Matrix coefficients                      : BT.709
  • Audio
  • ID                                       : 2
  • Format                                   : FLAC
  • Format/Info                              : Free Lossless Audio Codec
  • Codec ID                                 : A_FLAC
  • Duration                                 : 1 h 19 min
  • Bit rate mode                            : Variable
  • Bit rate                                 : 313 kb/s
  • Channel(s)                               : 2 channels
  • Channel layout                           : L R
  • Sampling rate                            : 48.0 kHz
  • Frame rate                               : 11.719 FPS (4096 SPF)
  • Bit depth                                : 16 bits
  • Compression mode                         : Lossless
  • Stream size                              : 177 MiB (5%)
  • Writing library                          : libFLAC 1.2.1 (UTC 2007-09-17)
  • Language                                 : English
  • Default                                  : Yes
  • Forced                                   : No
  • Menu
  • 00:00:00.000                             : en:00:00:00.000
  • 00:06:24.250                             : en:00:06:24.250
  • 00:13:44.625                             : en:00:13:44.625
  • 00:20:23.917                             : en:00:20:23.917
  • 00:27:43.167                             : en:00:27:43.167
  • 00:33:43.583                             : en:00:33:43.583
  • 00:40:50.208                             : en:00:40:50.208
  • 00:47:56.042                             : en:00:47:56.042
  • 00:55:01.500                             : en:00:55:01.500
  • 01:01:20.375                             : en:01:01:20.375
  • 01:09:31.667                             : en:01:09:31.667
  • 01:13:36.750                             : en:01:13:36.750

复制代码


20190801120031.jpg














4K321提示您  点击下方附件名称  马上开始下载

大地龙种 Fury.in.Storm.1974.DUBBED.720p.BluRay.x264-GUACAMOLE 3.42GB

Fury.in.Storm.1974.DUBBED.720p.BluRay.x264-GUACAMOLE.torrent ( 34.79 KB )




               
回复

使用道具 举报

全部回复0 显示全部楼层

声明:您在社区发表的所有信息仅代表用户个人观点,与本网站立场无关,希望各位烧友理性发言,不发表违法国家法律禁止的话题。

您需要登录后才可以回帖 登录 | 立即注册

本版积分规则

联系客服 关注微信 下载APP 返回顶部 返回列表