开启左侧

[动作片] 夺金营救/倒数反击 Honest.Thief.2020.720p.BluRay.x264-PiGNUS 3.36GB

蓝鸟 发表于 2021-1-12 17:28:28 | 显示全部楼层 |阅读模式




译  名 夺金营救 / The Honest Thief / 倒数反击(台) / 末路狂盗(港) / 诚实的小偷
片  名 Honest Thief
年  代 2020
产  地 美国
类  别 动作 / 惊悚 / 犯罪
语  言 英语
上映日期 2020-09-03(丹麦) / 2020-10-16(美国)
IMDb评分  6.1/10 from 4401 users
IMDb链接  https://www.imdb.com/title/tt1838556
豆瓣评分 5.9/10 from 153 users
豆瓣链接 https://movie.douban.com/subject/30349249/
片  长 99分钟
导  演 马克·威廉姆斯 Mark Williams
编  剧 史蒂夫·奥尔里奇 Steve Allrich / 马克·威廉姆斯 Mark Williams
主  演 连姆·尼森 Liam Neeson
       凯特·沃什 Kate Walsh
       杰·科特尼 Jai Courtney
       杰弗里·多诺万 Jeffrey Donovan
       安东尼·拉莫斯 Anthony Ramos
       罗伯特·帕特里克 Robert Patrick
       塔兹 Tazzie
       何塞·冈斯·阿尔维斯 Jose Guns Alves
       珍妮尔·费格利 Janelle Feigley
       德文·迪普 Devon Diep
       杰米·加扎里安 Jamie Ghazarian
       帕蒂·奥尼尔 Patty O"Neil
       阿德里安·M·蒙波因特 Adrian M. Mompoint
       安东尼·拉莫斯 Anthony Ramos
       雅斯曼·塞斯·琼斯 Jasmine Cephas Jones
       玛塞拉·贾拉米洛 Marcela Jaramillo

标  签 动作 | 美国 | 2020 | 悬疑 | 犯罪 | 惊悚 | 剧情 | 人性
简  介  
  连姆·尼森、凯特·沃什将主演新片[诚实的小偷](The Honest Thief,暂译)。本片由马克·威廉姆斯执导,故事讲述职业银行劫匪汤姆·卡特(尼森饰)遇到了他一生的挚爱安妮(沃尔什饰)。他之前在安妮工作的前台藏了700万美元的赃物,现决定自首。当案件被交给一个奸诈的联邦调查局特工时,一切都变得更加危险和困难。


该资源信息参数
  • Video
  • ID                                       : 1
  • Format                                   : AVC
  • Format/Info                              : Advanced Video Codec
  • Format profile                           : High@L4.1
  • Format settings                          : CABAC / 8 Ref Frames
  • Format settings, CABAC                   : Yes
  • Format settings, Reference frames        : 8 frames
  • Codec ID                                 : V_MPEG4/ISO/AVC
  • Duration                                 : 1 h 39 min
  • Bit rate                                 : 4 169 kb/s
  • Width                                    : 1 280 pixels
  • Height                                   : 536 pixels
  • Display aspect ratio                     : 2.40:1
  • Frame rate mode                          : Constant
  • Frame rate                               : 23.976 (24000/1001) FPS
  • Color space                              : YUV
  • Chroma subsampling                       : 4:2:0
  • Bit depth                                : 8 bits
  • Scan type                                : Progressive
  • Bits/(Pixel*Frame)                       : 0.253
  • Stream size                              : 2.90 GiB (86%)
  • Writing library                          : x264 core 161 r3027 4121277
  • Encoding settings                        : cabac=1 / ref=8 / deblock=1:-3:-3 / analyse=0x3:0x133 / me=umh / subme=9 / psy=1 / psy_rd=1.00:0.00 / mixed_ref=1 / me_range=16 / chroma_me=1 / trellis=2 / 8x8dct=1 / cqm=0 / deadzone=21,11 / fast_pskip=1 / chroma_qp_offset=-2 / threads=17 / lookahead_threads=1 / sliced_threads=0 / nr=0 / decimate=1 / interlaced=0 / bluray_compat=0 / constrained_intra=0 / bframes=3 / b_pyramid=2 / b_adapt=2 / b_bias=0 / direct=3 / weightb=1 / open_gop=0 / weightp=2 / keyint=250 / keyint_min=23 / scenecut=40 / intra_refresh=0 / rc_lookahead=60 / rc=crf / mbtree=1 / crf=15.0 / qcomp=0.60 / qpmin=0 / qpmax=69 / qpstep=4 / ip_ratio=1.40 / aq=1:1.00
  • Language                                 : English
  • Default                                  : Yes
  • Forced                                   : No
  • Audio
  • ID                                       : 2
  • Format                                   : AC-3
  • Format/Info                              : Audio Coding 3
  • Commercial name                          : Dolby Digital
  • Codec ID                                 : A_AC3
  • Duration                                 : 1 h 39 min
  • Bit rate mode                            : Constant
  • Bit rate                                 : 640 kb/s
  • Channel(s)                               : 6 channels
  • Channel layout                           : L R C LFE Ls Rs
  • Sampling rate                            : 48.0 kHz
  • Frame rate                               : 31.250 FPS (1536 SPF)
  • Compression mode                         : Lossy
  • Stream size                              : 455 MiB (13%)
  • Language                                 : English
  • Service kind                             : Complete Main
  • Default                                  : Yes
  • Forced                                   : No
  • Text #1
  • ID                                       : 3
  • Format                                   : PGS
  • Muxing mode                              : zlib
  • Codec ID                                 : S_HDMV/PGS
  • Codec ID/Info                            : Picture based subtitle format used on BDs/HD-DVDs
  • Duration                                 : 1 h 29 min
  • Bit rate                                 : 40.5 kb/s
  • Count of elements                        : 2714
  • Stream size                              : 25.9 MiB (1%)
  • Title                                    : English SDH
  • Language                                 : English
  • Default                                  : No
  • Forced                                   : No
  • Text #2
  • ID                                       : 4
  • Format                                   : PGS
  • Muxing mode                              : zlib
  • Codec ID                                 : S_HDMV/PGS
  • Codec ID/Info                            : Picture based subtitle format used on BDs/HD-DVDs
  • Duration                                 : 1 h 37 min
  • Bit rate                                 : 29.6 kb/s
  • Count of elements                        : 2336
  • Stream size                              : 20.7 MiB (1%)
  • Title                                    : Spanish
  • Language                                 : Spanish
  • Default                                  : No
  • Forced                                   : No
  • Menu
  • 00:00:00.000                             : en:Chapter 01
  • 00:05:03.803                             : en:Chapter 02
  • 00:09:47.212                             : en:Chapter 03
  • 00:15:27.343                             : en:Chapter 04
  • 00:20:17.174                             : en:Chapter 05
  • 00:25:35.659                             : en:Chapter 06
  • 00:30:45.969                             : en:Chapter 07
  • 00:35:29.836                             : en:Chapter 08
  • 00:41:41.666                             : en:Chapter 09
  • 00:46:24.573                             : en:Chapter 10
  • 00:49:47.610                             : en:Chapter 11
  • 00:55:11.642                             : en:Chapter 12
  • 00:58:32.926                             : en:Chapter 13
  • 01:04:19.856                             : en:Chapter 14
  • 01:10:25.972                             : en:Chapter 15
  • 01:14:56.367                             : en:Chapter 16
  • 01:18:13.689                             : en:Chapter 17
  • 01:20:09.263                             : en:Chapter 18
  • 01:25:24.202                             : en:Chapter 19
  • 01:30:43.855                             : en:Chapter 20
  • 01:39:25.543                             : en:Chapter 21

复制代码



















4K321提示您  点击下方附件名称  马上开始下载

夺金营救/倒数反击 Honest.Thief.2020.720p.BluRay.x264-PiGNUS 3.36GB

Honest.Thief.2020.720p.BluRay.x264-PiGNUS.torrent ( 34.19 KB )




               
回复

使用道具 举报

全部回复2 显示全部楼层
Rock手机认证 发表于 2021-2-22 09:15:27 | 显示全部楼层
就是要看高清的:victory::victory::victory:
回复 支持 反对

使用道具 举报

风吹云散手机认证 发表于 2021-11-13 21:07:36 来自手机 | 显示全部楼层
好东西要分享
回复 支持 反对

使用道具 举报

声明:您在社区发表的所有信息仅代表用户个人观点,与本网站立场无关,希望各位烧友理性发言,不发表违法国家法律禁止的话题。

您需要登录后才可以回帖 登录 | 立即注册

本版积分规则

联系客服 关注微信 下载APP 返回顶部 返回列表