开启左侧

[剧情片] 全民小英雄/我们可以是英雄 We.Can.Be.Heroes.2020.1080p.NF.WEBRip.DDP5.1.x264-MZABI 5.02GB

蓝鸟 发表于 2021-1-12 15:07:54 | 显示全部楼层 |阅读模式



译  名 全民小英雄 / 我们可以是英雄
片  名 We Can Be Heroes
年  代 2020
产  地 美国
类  别 剧情 / 喜剧 / 动作 / 奇幻
语  言 英语
上映日期 2020-12-25(美国网络)
IMDb链接  https://www.imdb.com/title/tt10600398
豆瓣评分 0/10 from 0 users
豆瓣链接 https://movie.douban.com/subject/34801538/
导  演 罗伯特·罗德里格兹 Robert Rodriguez
编  剧 罗伯特·罗德里格兹 Robert Rodriguez
主  演 佩德罗·帕斯卡 Pedro Pascal
       泰勒·杜雷 Taylor Dooley
       佩丽冉卡·曹帕拉 Priyanka Chopra
       波伊德·霍布鲁克 Boyd Holbrook
       克里斯蒂安·史莱特 Christian Slater
       姜成镐 Sung Kang
       克里斯托弗·麦克唐纳 Christopher McDonald
       维维恩·莱拉·布莱尔 Vivien Lyra Blair
       哈拉·芬利 Hala Finley
       艾德里安娜·巴拉扎 Adriana Barraza
       瑞秋·斯派克特 Rachel Specter
       阿基拉·阿克巴 Akira Akbar
       韦恩·佩雷 Wayne Pére
       安迪·沃肯 Andy Walken
       Nick Stevenson
       阿琳·卡瓦佐斯 Arlene Cavazos
       特里斯坦·里格斯 Tristan Riggs
       海尔斯·杨 Heath Young
       布列塔尼·派丽-拉塞尔 Brittany Perry-Russell
       马克·A·怀特 Mark A. White


标  签 美国 | 奇幻 | 超级英雄 | 罗伯特·罗德里格兹 | 动作 | 剧情 | Netflix | 美国电影

简  介  

  外星入侵者绑架了地球的超级英雄,他们的孩子则被匆匆送进政府避难所,但机智过人的青少女蜜西(Yaya Gosselin 饰)使尽各种招数,一心要拯救她的超级英雄爸爸马可斯(Pedro Pascal 饰),为此她跟其他超级小英雄携手合作,逃离当局神秘的保母格拉娜达女士(Priyanka Chopra Jonas 饰)。这群孩子必须各自使出包括超强弹力、控制时间和预言未来在内的力量并肩作战,组成无人能敌的团队,才能成功救出爸爸妈妈。动作画面精彩且真挚动人的《全民小英雄》由《非常小特务》、《鲨胆小英雄》导演 Robert Rodriguez 执导,并请到 Boyd Holbrook、Christian Slater、Chris McDonald 及 Adriana Barraza 同台演出。



该资源信息参数
  • Video
  • ID                                       : 1
  • Format                                   : AVC
  • Format/Info                              : Advanced Video Codec
  • Format profile                           : Main@L4
  • Format settings                          : CABAC / 3 Ref Frames
  • Format settings, CABAC                   : Yes
  • Format settings, Reference frames        : 3 frames
  • Codec ID                                 : V_MPEG4/ISO/AVC
  • Duration                                 : 1 h 40 min
  • Bit rate mode                            : Variable
  • Bit rate                                 : 6 810 kb/s
  • Maximum bit rate                         : 10.2 Mb/s
  • Width                                    : 1 920 pixels
  • Height                                   : 1 080 pixels
  • Display aspect ratio                     : 16:9
  • Frame rate mode                          : Constant
  • Frame rate                               : 23.976 (24000/1001/45778) FPS
  • Color space                              : YUV
  • Chroma subsampling                       : 4:2:0
  • Bit depth                                : 8 bits
  • Scan type                                : Progressive
  • Bits/(Pixel*Frame)                       : 0.137
  • Stream size                              : 4.56 GiB (91%)
  • Writing library                          : x264 core 148 r2722 1b0121b
  • Encoding settings                        : cabac=1 / ref=3 / deblock=1:0:0 / analyse=0x1:0x111 / me=umh / subme=10 / psy=1 / psy_rd=1.00:0.00 / mixed_ref=1 / me_range=24 / chroma_me=1 / trellis=2 / 8x8dct=0 / cqm=0 / deadzone=21,11 / fast_pskip=1 / chroma_qp_offset=-2 / threads=6 / lookahead_threads=1 / sliced_threads=0 / nr=0 / decimate=1 / interlaced=0 / NDU3Nzg= / bluray_compat=0 / stitchable=1 / constrained_intra=0 / bframes=2 / b_pyramid=0 / b_adapt=2 / b_bias=0 / direct=3 / weightb=1 / open_gop=0 / weightp=2 / keyint=250 / keyint_min=23 / scenecut=0 / intra_refresh=0 / rc_lookahead=48 / rc=2pass / mbtree=1 / bitrate=6810 / ratetol=1.0 / qcomp=0.50 / qpmin=6 / qpmax=51 / qpstep=4 / cplxblur=20.0 / qblur=0.5 / vbv_maxrate=10215 / vbv_bufsize=13620 / nal_hrd=vbr / filler=0 / NDU3Nzg=feCb3SYgnbojFoo / ip_ratio=1.40 / aq=1:1.00
  • Default                                  : Yes
  • Forced                                   : No
  • Audio
  • ID                                       : 2
  • Format                                   : E-AC-3
  • Format/Info                              : Enhanced AC-3
  • Commercial name                          : Dolby Digital Plus
  • Codec ID                                 : A_EAC3
  • Duration                                 : 1 h 40 min
  • Bit rate mode                            : Constant
  • Bit rate                                 : 640 kb/s
  • Channel(s)                               : 6 channels
  • Channel layout                           : L R C LFE Ls Rs
  • Sampling rate                            : 48.0 kHz
  • Frame rate                               : 31.250 FPS (1536 SPF)
  • Compression mode                         : Lossy
  • Stream size                              : 461 MiB (9%)
  • Title                                    : English
  • Language                                 : English
  • Service kind                             : Complete Main
  • Default                                  : No
  • Forced                                   : No
  • Text #1
  • ID                                       : 3
  • Format                                   : UTF-8
  • Codec ID                                 : S_TEXT/UTF8
  • Codec ID/Info                            : UTF-8 Plain Text
  • Duration                                 : 1 h 31 min
  • Bit rate                                 : 100 b/s
  • Count of elements                        : 1300
  • Stream size                              : 67.7 KiB (0%)
  • Title                                    : Arabic
  • Language                                 : Arabic
  • Default                                  : No
  • Forced                                   : No
  • Text #2
  • ID                                       : 4
  • Format                                   : UTF-8
  • Codec ID                                 : S_TEXT/UTF8
  • Codec ID/Info                            : UTF-8 Plain Text
  • Duration                                 : 1 h 36 min
  • Bit rate                                 : 46 b/s
  • Count of elements                        : 1283
  • Stream size                              : 33.0 KiB (0%)
  • Title                                    : Malay
  • Language                                 : Malay
  • Default                                  : No
  • Forced                                   : No
  • Text #3
  • ID                                       : 5
  • Format                                   : UTF-8
  • Codec ID                                 : S_TEXT/UTF8
  • Codec ID/Info                            : UTF-8 Plain Text
  • Duration                                 : 1 h 31 min
  • Bit rate                                 : 57 b/s
  • Count of elements                        : 1274
  • Stream size                              : 38.5 KiB (0%)
  • Title                                    : Romanian
  • Language                                 : Romanian
  • Default                                  : No
  • Forced                                   : No
  • Text #4
  • ID                                       : 6
  • Format                                   : UTF-8
  • Codec ID                                 : S_TEXT/UTF8
  • Codec ID/Info                            : UTF-8 Plain Text
  • Duration                                 : 1 h 36 min
  • Bit rate                                 : 48 b/s
  • Count of elements                        : 1210
  • Stream size                              : 34.0 KiB (0%)
  • Title                                    : Swedish
  • Language                                 : Swedish
  • Default                                  : No
  • Forced                                   : No
  • Text #5
  • ID                                       : 7
  • Format                                   : UTF-8
  • Codec ID                                 : S_TEXT/UTF8
  • Codec ID/Info                            : UTF-8 Plain Text
  • Duration                                 : 1 h 36 min
  • Bit rate                                 : 51 b/s
  • Count of elements                        : 1177
  • Stream size                              : 36.2 KiB (0%)
  • Title                                    : Turkish
  • Language                                 : Turkish
  • Default                                  : No
  • Forced                                   : No
  • Text #6
  • ID                                       : 8
  • Format                                   : UTF-8
  • Codec ID                                 : S_TEXT/UTF8
  • Codec ID/Info                            : UTF-8 Plain Text
  • Duration                                 : 1 h 36 min
  • Bit rate                                 : 47 b/s
  • Count of elements                        : 1244
  • Stream size                              : 33.1 KiB (0%)
  • Title                                    : Portuguese
  • Language                                 : Portuguese
  • Default                                  : No
  • Forced                                   : No
  • Text #7
  • ID                                       : 9
  • Format                                   : UTF-8
  • Codec ID                                 : S_TEXT/UTF8
  • Codec ID/Info                            : UTF-8 Plain Text
  • Duration                                 : 1 h 36 min
  • Bit rate                                 : 48 b/s
  • Count of elements                        : 959
  • Stream size                              : 34.1 KiB (0%)
  • Title                                    : Norwegian Bokmal
  • Language                                 : Norwegian Bokmal
  • Default                                  : No
  • Forced                                   : No
  • Text #8
  • ID                                       : 10
  • Format                                   : UTF-8
  • Codec ID                                 : S_TEXT/UTF8
  • Codec ID/Info                            : UTF-8 Plain Text
  • Duration                                 : 1 h 36 min
  • Bit rate                                 : 46 b/s
  • Count of elements                        : 1264
  • Stream size                              : 32.4 KiB (0%)
  • Title                                    : Polish
  • Language                                 : Polish
  • Default                                  : No
  • Forced                                   : No
  • Text #9
  • ID                                       : 11
  • Format                                   : UTF-8
  • Codec ID                                 : S_TEXT/UTF8
  • Codec ID/Info                            : UTF-8 Plain Text
  • Duration                                 : 1 h 36 min
  • Bit rate                                 : 45 b/s
  • Count of elements                        : 1305
  • Stream size                              : 32.2 KiB (0%)
  • Title                                    : Croatian
  • Language                                 : Croatian
  • Default                                  : No
  • Forced                                   : No
  • Text #10
  • ID                                       : 12
  • Format                                   : UTF-8
  • Codec ID                                 : S_TEXT/UTF8
  • Codec ID/Info                            : UTF-8 Plain Text
  • Duration                                 : 1 h 36 min
  • Bit rate                                 : 140 b/s
  • Count of elements                        : 1304
  • Stream size                              : 98.8 KiB (0%)
  • Title                                    : Thai
  • Language                                 : Thai
  • Default                                  : No
  • Forced                                   : No
  • Text #11
  • ID                                       : 13
  • Format                                   : UTF-8
  • Codec ID                                 : S_TEXT/UTF8
  • Codec ID/Info                            : UTF-8 Plain Text
  • Duration                                 : 1 h 36 min
  • Bit rate                                 : 70 b/s
  • Count of elements                        : 1286
  • Stream size                              : 49.9 KiB (0%)
  • Title                                    : Vietnamese
  • Language                                 : Vietnamese
  • Default                                  : No
  • Forced                                   : No
  • Text #12
  • ID                                       : 14
  • Format                                   : UTF-8
  • Codec ID                                 : S_TEXT/UTF8
  • Codec ID/Info                            : UTF-8 Plain Text
  • Duration                                 : 1 h 36 min
  • Bit rate                                 : 54 b/s
  • Count of elements                        : 1297
  • Stream size                              : 38.6 KiB (0%)
  • Title                                    : Chinese Simplified
  • Language                                 : Chinese
  • Default                                  : No
  • Forced                                   : No
  • Text #13
  • ID                                       : 15
  • Format                                   : UTF-8
  • Codec ID                                 : S_TEXT/UTF8
  • Codec ID/Info                            : UTF-8 Plain Text
  • Duration                                 : 1 h 36 min
  • Bit rate                                 : 84 b/s
  • Count of elements                        : 1278
  • Stream size                              : 59.3 KiB (0%)
  • Title                                    : Hebrew
  • Language                                 : Hebrew
  • Default                                  : No
  • Forced                                   : No
  • Text #14
  • ID                                       : 16
  • Format                                   : UTF-8
  • Codec ID                                 : S_TEXT/UTF8
  • Codec ID/Info                            : UTF-8 Plain Text
  • Duration                                 : 1 h 30 min
  • Bit rate                                 : 62 b/s
  • Count of elements                        : 1349
  • Stream size                              : 41.4 KiB (0%)
  • Title                                    : Spanish [CC]
  • Language                                 : Spanish
  • Default                                  : No
  • Forced                                   : No
  • Text #15
  • ID                                       : 17
  • Format                                   : UTF-8
  • Codec ID                                 : S_TEXT/UTF8
  • Codec ID/Info                            : UTF-8 Plain Text
  • Duration                                 : 1 h 30 min
  • Bit rate                                 : 65 b/s
  • Count of elements                        : 1645
  • Stream size                              : 43.7 KiB (0%)
  • Title                                    : English [CC]
  • Language                                 : English
  • Default                                  : No
  • Forced                                   : No
  • Text #16
  • ID                                       : 18
  • Format                                   : UTF-8
  • Codec ID                                 : S_TEXT/UTF8
  • Codec ID/Info                            : UTF-8 Plain Text
  • Duration                                 : 1 h 31 min
  • Bit rate                                 : 75 b/s
  • Count of elements                        : 1593
  • Stream size                              : 50.7 KiB (0%)
  • Title                                    : French [CC]
  • Language                                 : French
  • Default                                  : No
  • Forced                                   : No
  • Text #17
  • ID                                       : 19
  • Format                                   : UTF-8
  • Codec ID                                 : S_TEXT/UTF8
  • Codec ID/Info                            : UTF-8 Plain Text
  • Duration                                 : 1 h 36 min
  • Bit rate                                 : 48 b/s
  • Count of elements                        : 1287
  • Stream size                              : 34.1 KiB (0%)
  • Title                                    : Indonesian
  • Language                                 : Indonesian
  • Default                                  : No
  • Forced                                   : No
  • Text #18
  • ID                                       : 20
  • Format                                   : UTF-8
  • Codec ID                                 : S_TEXT/UTF8
  • Codec ID/Info                            : UTF-8 Plain Text
  • Duration                                 : 1 h 36 min
  • Bit rate                                 : 50 b/s
  • Count of elements                        : 1293
  • Stream size                              : 35.4 KiB (0%)
  • Title                                    : Brazilian Portuguese
  • Language                                 : Portuguese
  • Default                                  : No
  • Forced                                   : No
  • Text #19
  • ID                                       : 21
  • Format                                   : UTF-8
  • Codec ID                                 : S_TEXT/UTF8
  • Codec ID/Info                            : UTF-8 Plain Text
  • Duration                                 : 1 h 36 min
  • Bit rate                                 : 57 b/s
  • Count of elements                        : 1308
  • Stream size                              : 40.5 KiB (0%)
  • Title                                    : Chinese Traditional
  • Language                                 : Chinese
  • Default                                  : No
  • Forced                                   : No
  • Text #20
  • ID                                       : 22
  • Format                                   : UTF-8
  • Codec ID                                 : S_TEXT/UTF8
  • Codec ID/Info                            : UTF-8 Plain Text
  • Duration                                 : 1 h 36 min
  • Bit rate                                 : 47 b/s
  • Count of elements                        : 939
  • Stream size                              : 33.2 KiB (0%)
  • Title                                    : Finnish
  • Language                                 : Finnish
  • Default                                  : No
  • Forced                                   : No
  • Text #21
  • ID                                       : 23
  • Format                                   : UTF-8
  • Codec ID                                 : S_TEXT/UTF8
  • Codec ID/Info                            : UTF-8 Plain Text
  • Duration                                 : 1 h 35 min
  • Bit rate                                 : 51 b/s
  • Count of elements                        : 1284
  • Stream size                              : 36.5 KiB (0%)
  • Title                                    : Spanish
  • Language                                 : Spanish
  • Default                                  : No
  • Forced                                   : No
  • Text #22
  • ID                                       : 24
  • Format                                   : UTF-8
  • Codec ID                                 : S_TEXT/UTF8
  • Codec ID/Info                            : UTF-8 Plain Text
  • Duration                                 : 1 h 36 min
  • Bit rate                                 : 86 b/s
  • Count of elements                        : 1329
  • Stream size                              : 60.5 KiB (0%)
  • Title                                    : Greek
  • Language                                 : Greek
  • Default                                  : No
  • Forced                                   : No
  • Text #23
  • ID                                       : 25
  • Format                                   : UTF-8
  • Codec ID                                 : S_TEXT/UTF8
  • Codec ID/Info                            : UTF-8 Plain Text
  • Duration                                 : 1 h 36 min
  • Bit rate                                 : 48 b/s
  • Count of elements                        : 1264
  • Stream size                              : 34.3 KiB (0%)
  • Title                                    : European Spanish
  • Language                                 : Spanish
  • Default                                  : No
  • Forced                                   : No
  • Text #24
  • ID                                       : 26
  • Format                                   : UTF-8
  • Codec ID                                 : S_TEXT/UTF8
  • Codec ID/Info                            : UTF-8 Plain Text
  • Duration                                 : 1 h 36 min
  • Bit rate                                 : 50 b/s
  • Count of elements                        : 1316
  • Stream size                              : 35.2 KiB (0%)
  • Title                                    : Czech
  • Language                                 : Czech
  • Default                                  : No
  • Forced                                   : No
  • Text #25
  • ID                                       : 27
  • Format                                   : UTF-8
  • Codec ID                                 : S_TEXT/UTF8
  • Codec ID/Info                            : UTF-8 Plain Text
  • Duration                                 : 1 h 35 min
  • Bit rate                                 : 65 b/s
  • Count of elements                        : 1293
  • Stream size                              : 45.8 KiB (0%)
  • Title                                    : Korean
  • Language                                 : Korean
  • Default                                  : No
  • Forced                                   : No
  • Text #26
  • ID                                       : 28
  • Format                                   : UTF-8
  • Codec ID                                 : S_TEXT/UTF8
  • Codec ID/Info                            : UTF-8 Plain Text
  • Duration                                 : 1 h 35 min
  • Bit rate                                 : 49 b/s
  • Count of elements                        : 1197
  • Stream size                              : 35.0 KiB (0%)
  • Title                                    : Italian
  • Language                                 : Italian
  • Default                                  : No
  • Forced                                   : No
  • Text #27
  • ID                                       : 29
  • Format                                   : UTF-8
  • Codec ID                                 : S_TEXT/UTF8
  • Codec ID/Info                            : UTF-8 Plain Text
  • Duration                                 : 1 h 36 min
  • Bit rate                                 : 48 b/s
  • Count of elements                        : 1107
  • Stream size                              : 34.0 KiB (0%)
  • Title                                    : Dutch
  • Language                                 : Dutch
  • Default                                  : No
  • Forced                                   : No
  • Text #28
  • ID                                       : 30
  • Format                                   : UTF-8
  • Codec ID                                 : S_TEXT/UTF8
  • Codec ID/Info                            : UTF-8 Plain Text
  • Duration                                 : 1 h 36 min
  • Bit rate                                 : 51 b/s
  • Count of elements                        : 1285
  • Stream size                              : 36.2 KiB (0%)
  • Title                                    : French
  • Language                                 : French
  • Default                                  : No
  • Forced                                   : No
  • Text #29
  • ID                                       : 31
  • Format                                   : UTF-8
  • Codec ID                                 : S_TEXT/UTF8
  • Codec ID/Info                            : UTF-8 Plain Text
  • Duration                                 : 1 h 36 min
  • Bit rate                                 : 51 b/s
  • Count of elements                        : 1195
  • Stream size                              : 36.3 KiB (0%)
  • Title                                    : Hungarian
  • Language                                 : Hungarian
  • Default                                  : No
  • Forced                                   : No
  • Text #30
  • ID                                       : 32
  • Format                                   : UTF-8
  • Codec ID                                 : S_TEXT/UTF8
  • Codec ID/Info                            : UTF-8 Plain Text
  • Duration                                 : 1 h 36 min
  • Bit rate                                 : 47 b/s
  • Count of elements                        : 1213
  • Stream size                              : 33.2 KiB (0%)
  • Title                                    : Danish
  • Language                                 : Danish
  • Default                                  : No
  • Forced                                   : No
  • Text #31
  • ID                                       : 33
  • Format                                   : UTF-8
  • Codec ID                                 : S_TEXT/UTF8
  • Codec ID/Info                            : UTF-8 Plain Text
  • Duration                                 : 1 h 36 min
  • Bit rate                                 : 53 b/s
  • Count of elements                        : 1217
  • Stream size                              : 37.5 KiB (0%)
  • Title                                    : Japanese
  • Language                                 : Japanese
  • Default                                  : No
  • Forced                                   : No
  • Text #32
  • ID                                       : 34
  • Format                                   : UTF-8
  • Codec ID                                 : S_TEXT/UTF8
  • Codec ID/Info                            : UTF-8 Plain Text
  • Duration                                 : 1 h 36 min
  • Bit rate                                 : 50 b/s
  • Count of elements                        : 1216
  • Stream size                              : 35.8 KiB (0%)
  • Title                                    : German
  • Language                                 : German
  • Default                                  : No
  • Forced                                   : No
  • Text #33
  • ID                                       : 35
  • Format                                   : UTF-8
  • Codec ID                                 : S_TEXT/UTF8
  • Codec ID/Info                            : UTF-8 Plain Text
  • Duration                                 : 1 h 36 min
  • Bit rate                                 : 67 b/s
  • Count of elements                        : 1544
  • Stream size                              : 47.6 KiB (0%)
  • Title                                    : German [CC]
  • Language                                 : German
  • Default                                  : No
  • Forced                                   : No
  • Text #34
  • ID                                       : 36
  • Format                                   : UTF-8
  • Codec ID                                 : S_TEXT/UTF8
  • Codec ID/Info                            : UTF-8 Plain Text
  • Duration                                 : 1 h 31 min
  • Bit rate                                 : 64 b/s
  • Count of elements                        : 1313
  • Stream size                              : 43.1 KiB (0%)
  • Title                                    : Brazilian Portuguese [CC]
  • Language                                 : Portuguese
  • Default                                  : No
  • Forced                                   : No
  • Text #35
  • ID                                       : 37
  • Format                                   : UTF-8
  • Codec ID                                 : S_TEXT/UTF8
  • Codec ID/Info                            : UTF-8 Plain Text
  • Duration                                 : 1 h 36 min
  • Bit rate                                 : 83 b/s
  • Count of elements                        : 1378
  • Stream size                              : 58.7 KiB (0%)
  • Title                                    : Russian
  • Language                                 : Russian
  • Default                                  : No
  • Forced                                   : No
  • Text #36
  • ID                                       : 38
  • Format                                   : UTF-8
  • Codec ID                                 : S_TEXT/UTF8
  • Codec ID/Info                            : UTF-8 Plain Text
  • Duration                                 : 1 h 31 min
  • Bit rate                                 : 62 b/s
  • Count of elements                        : 1383
  • Stream size                              : 42.0 KiB (0%)
  • Title                                    : Italian [CC]
  • Language                                 : Italian
  • Default                                  : No
  • Forced                                   : No

复制代码











4K321提示您  点击下方附件名称  马上开始下载

全民小英雄/我们可以是英雄 We.Can.Be.Heroes.2020.1080p.NF.WEBRip.DDP5.1.x264-MZABI 5.02GB

We.Can.Be.Heroes.2020.1080p.NF.WEBRip.DDP5.1.x264-MZABI.torrent ( 25.63 KB )




               
回复

使用道具 举报

全部回复0 显示全部楼层

声明:您在社区发表的所有信息仅代表用户个人观点,与本网站立场无关,希望各位烧友理性发言,不发表违法国家法律禁止的话题。

您需要登录后才可以回帖 登录 | 立即注册

本版积分规则

联系客服 关注微信 下载APP 返回顶部 返回列表