开启左侧

[剧情片] 配角演员 By.Player.2000.JAPANESE.1080p.WEBRip.x264-VXT 2.41GB

蓝鸟 发表于 2021-1-12 14:54:48 | 显示全部楼层 |阅读模式
20190801120031.jpg


译  名 配角演员 / By Player / Sanmoplayer
片  名 三文役者
年  代 2000
产  地 日本
类  别 剧情 / 爱情
语  言 日语
上映日期 2000-12-02(日本)
IMDb评分  7.0/10 from 89 users
IMDb链接  https://www.imdb.com/title/tt0263963
豆瓣评分 7.2/10 from 53 users
豆瓣链接 https://movie.douban.com/subject/1303667/
片  长 126分钟
导  演 新藤兼人 Kaneto Shind?
编  剧 新藤兼人 Kaneto Shind?
主  演 竹中直人 Naoto Takenaka
       荻野目庆子 Keiko Oginome
       吉田日出子 Hideko Yoshida
       乙羽信子 Nobuko Otowa
       倍赏美津子 Mitsuko Baisho
       田中要次 Y?ji Tanaka
       新藤兼人 Kaneto Shind?
       大森南朋 Nao Omori
       铃木卓尔 Takuji Suzuki
       绘泽萠子 Moeko Ezawa
       原绯纱子 Hisako Hara
       原田大二郎 Daijiro Harada
       川上麻衣子 Maiko Kawakami
       木场胜己 Katsumi Kiba
       菊地凛子 Rinko Kikuchi
       真野桐奈 Kirina Mano
       松重丰 Yutaka Matsushige
       波乃久里子 Kuriko Namino
       二木照美 Terumi Niki
       上田耕一 K?ichi Ueda
       植田峻 Shun Ueda
       今村昌平 Shohei Imamura
       神山征二郎 Seijir? K?yama
       大杉涟 Ren Ohsugi
       田口智朗 Tomorowo Taguchi
       铃木祐纪 Yuki Suzuki

标  签 新藤兼人 | 日本 | 日本电影 | 竹中直人 | 2000 | 爱情 | 菊地凛子 | 2000s
简  介  
  1915年10月17日、タイちゃんこと殿山泰司は、銀座の“おでんお多幸”の長男として生まれ、36年、俳優となった。36歳の時、タイちゃんは京都の喫茶店“フランソワ”のウェイトレス、キミエと出会い相思相愛の仲になる。ところが、彼には既に鎌倉に内縁の妻?アサ子がいたのだ。タイちゃんは、女優のオカジこと乙羽信子を介してアサ子に別れ話を持ち出すが、逆にアサ子はタイちゃんに黙って婚姻届を出し、養女まで迎えてしまう。しかし、東京でタイちゃんと同棲を始めたキミエも負けてはいない。対抗心をむき出しにして、兄の息子?安夫を養子に取ったのだ。こうして、たちまち二児の父親になってしまったタイちゃんであったが、仕事では「愛妻物語」「裸の島」といった素晴らしい作品に恵まれ、しかも「人間」では数々の賞に輝いた。その後、肝硬変、母の死、子供たちの結婚、浮気事件、様々な出来事を経て、古希を迎える年となったタイちゃん。選り好みせず仕事をしてきた彼だったが、このところめっきり仕事の依頼が減っていた。ところが余命半年の診断を受けた時、皮肉にも3本の仕事が舞い込んでくる。そして、堀川弘通監督の「花物語」への出演を終えた直後の1989年4月30日、ジャズとミステリィをこよなく愛した三文役者?タイちゃんは、キミエに看取られながら他界した。
获奖情况  
  第24届日本电影学院奖(2001)
  最佳男主角(提名) 竹中直人


该资源信息参数
  • Video
  • ID                                       : 1
  • Format                                   : AVC
  • Format/Info                              : Advanced Video Codec
  • Format profile                           : High@L4.1
  • Format settings                          : CABAC / 4 Ref Frames
  • Format settings, CABAC                   : Yes
  • Format settings, Reference frames        : 4 frames
  • Codec ID                                 : avc1
  • Codec ID/Info                            : Advanced Video Coding
  • Duration                                 : 2 h 6 min
  • Bit rate                                 : 2 500 kb/s
  • Width                                    : 1 920 pixels
  • Height                                   : 1 036 pixels
  • Display aspect ratio                     : 1.85:1
  • Frame rate mode                          : Constant
  • Frame rate                               : 29.970 (29970/1000) FPS
  • Color space                              : YUV
  • Chroma subsampling                       : 4:2:0
  • Bit depth                                : 8 bits
  • Scan type                                : Progressive
  • Bits/(Pixel*Frame)                       : 0.042
  • Stream size                              : 2.20 GiB (91%)
  • Writing library                          : x264 core 152 r2851M ba24899
  • Encoding settings                        : cabac=1 / ref=4 / deblock=1:-1:-1 / analyse=0x3:0x113 / me=umh / subme=9 / psy=1 / psy_rd=1.00:0.15 / mixed_ref=1 / me_range=24 / chroma_me=1 / trellis=2 / 8x8dct=1 / cqm=0 / deadzone=21,11 / fast_pskip=1 / chroma_qp_offset=-3 / threads=16 / lookahead_threads=4 / sliced_threads=0 / nr=0 / decimate=1 / interlaced=0 / bluray_compat=0 / constrained_intra=0 / bframes=3 / b_pyramid=2 / b_adapt=2 / b_bias=0 / direct=3 / weightb=1 / open_gop=0 / weightp=2 / keyint=250 / keyint_min=25 / scenecut=40 / intra_refresh=0 / rc_lookahead=50 / rc=2pass / mbtree=1 / bitrate=2500 / ratetol=1.0 / qcomp=0.60 / qpmin=0 / qpmax=69 / qpstep=4 / cplxblur=20.0 / qblur=0.5 / vbv_maxrate=31250 / vbv_bufsize=31250 / nal_hrd=none / filler=0 / ip_ratio=1.40 / aq=3:1.00
  • Encoded date                             : UTC 2021-01-09 15:00:23
  • Tagged date                              : UTC 2021-01-09 15:00:23
  • Codec configuration box                  : avcC
  • Audio
  • ID                                       : 2
  • Format                                   : AAC LC
  • Format/Info                              : Advanced Audio Codec Low Complexity
  • Codec ID                                 : mp4a-40-2
  • Duration                                 : 2 h 6 min
  • Bit rate mode                            : Constant
  • Bit rate                                 : 224 kb/s
  • Channel(s)                               : 2 channels
  • Channel layout                           : L R
  • Sampling rate                            : 48.0 kHz
  • Frame rate                               : 46.875 FPS (1024 SPF)
  • Compression mode                         : Lossy
  • Stream size                              : 202 MiB (8%)
  • Language                                 : Japanese
  • Default                                  : Yes
  • Alternate group                          : 1
  • Encoded date                             : UTC 2021-01-09 15:00:23
  • Tagged date                              : UTC 2021-01-09 15:00:23

复制代码



20190801120031.jpg

20190801120031.jpg

20190801120031.jpg


4K321提示您  点击下方附件名称  马上开始下载

配角演员 By.Player.2000.JAPANESE.1080p.WEBRip.x264-VXT 2.41GB

By.Player.2000.JAPANESE.1080p.WEBRip.x264-VXT.torrent ( 24.72 KB )




               
回复

使用道具 举报

全部回复0 显示全部楼层

声明:您在社区发表的所有信息仅代表用户个人观点,与本网站立场无关,希望各位烧友理性发言,不发表违法国家法律禁止的话题。

您需要登录后才可以回帖 登录 | 立即注册

本版积分规则

联系客服 关注微信 下载APP 返回顶部 返回列表